img image001 image001 image001 image001 image001 image001 image001 image001 image001 image001 image001 image001 image001 image001 image001

Planets Sun Sun Sun
Статистика раздачи
Автор: PriZraK | Размер: 742.87 МБ | Добавлен: 23 мар 2022
Раздают: 0    Качают: 1
Скачать торрент
Скачать торрент
Описание торрента

СообщениеДобавлено: 23 мар 2022 

Информация о фильме
Название: Замученный
Оригинальное название: The Tortured
Год выхода: 2010
Жанр: Ужасы, триллер, драма
Режиссер: Роберт Либерман
В ролях: Джесси Меткалф, Эрика Кристенсен, Билл Моусли, Чела Хорсдэл, Фульвио Чечере, Джейкоб Дейвис, Аарон Перл, Вив Ликок, Кэйден Кесслер, Саманта Гудстад

О фильме:
Безоблачная семейная жизнь Элис и Крэйга потеряла смысл существования, когда их маленький сын был похищен и убит. Убитые горем молодые родители тяжело переживают случившееся и в скором времени находят, чем закрыть зияющую пустоту в душе. Они находят маньяка, который жестоко расправился с их ребенком, похищают его из тюрьмы и помещают в другую, импровизированную тюрьму в их доме. За стенами некогда счастливого семейного гнездышка убийца получает по заслугам за свою последнюю жертву.



Страна: США, Канада
Студия: LightTower Entertainment, MP Productions, Twisted Light Productions, Twisted Pictures
Продолжительность: 01:21:40
Перевод: Профессиональный многоголосый, профессиональный двухголосый

Файл
Формат: MKV
Качество: BDRip-AVC
Видео: MPEG-4 AVC, 704x396, 1107 Кбит/с
Аудио #1: RUS, AAC-HE, 2 ch, 84 Кбит/с | Профессиональный многоголосый, R5 |
Аудио #2: RUS, AAC-HE, 2 ch, 84 Кбит/с | Профессиональный двухголосый, НТВ+ |
Субтитры: русские, английские

Общее
Уникальный идентификатор : 337777208899358286765169763822570266141 (0xFE1D862C67EF2DB336FD2725DE975E1D)
Полное имя : D:MOVIESThe.Tortured.2010.BDRip-AVC.ExKinoRay.mkv
Формат : Matroska
Версия формата : Version 4
Размер файла : 743 Мбайт
Продолжительность : 1 ч. 21 м.
Общий поток : 1 272 Кбит/сек
Дата кодирования : UTC 2022-01-06 04:57:10
Программа кодирования : mkvmerge v48.0.0 ('Fortress Around Your Heart') 64-bit
Библиотека кодирования : libebml v1.4.0 + libmatroska v1.6.0

Видео
Идентификатор : 1
Формат : AVC
Формат/Информация : Advanced Video Codec
Профиль формата : High@L4.1
Настройки формата : CABAC / 13 Ref Frames
Параметр CABAC формата : Да
Параметр RefFrames формата : 13 кадров
Идентификатор кодека : V_MPEG4/ISO/AVC
Продолжительность : 1 ч. 21 м.
Битрейт : 1 107 Кбит/сек
Ширина : 704 пикселя
Высота : 396 пикселей
Соотношение сторон : 16:9
Режим частоты кадров : Постоянный
Частота кадров : 23,976 (24000/1001) кадра/сек
Цветовое пространство : YUV
Субдискретизация насыщенности : 4:2:0
Битовая глубина : 8 бит
Тип развёртки : Прогрессивная
Бит/(Пиксели*Кадры) : 0.166
Размер потока : 643 Мбайт (87%)
Библиотека кодирования : x264 core 161 r3053 c347e7a
Настройки программы : cabac=1 / ref=13 / deblock=1:-2:-2 / analyse=0x3:0x133 / me=umh / subme=10 / psy=1 / psy_rd=1.05:0.14 / mixed_ref=1 / me_range=32 / chroma_me=1 / trellis=2 / 8x8dct=1 / cqm=0 / deadzone=21,11 / fast_pskip=0 / chroma_qp_offset=-3 / threads=6 / lookahead_threads=1 / sliced_threads=0 / nr=0 / decimate=0 / interlaced=0 / bluray_compat=0 / constrained_intra=0 / bframes=12 / b_pyramid=2 / b_adapt=2 / b_bias=0 / direct=3 / weightb=1 / open_gop=0 / weightp=2 / keyint=240 / keyint_min=23 / scenecut=40 / intra_refresh=0 / rc=2pass / mbtree=0 / bitrate=1107 / ratetol=1.0 / qcomp=0.60 / qpmin=0 / qpmax=69 / qpstep=4 / cplxblur=20.0 / qblur=0.5 / ip_ratio=1.40 / pb_ratio=1.30 / aq=3:1.00
Default : Да
Forced : Нет
Цветовой диапазон : Limited
Основные цвета : BT.709
Характеристики трансфера : BT.709
Коэффициенты матрицы : BT.709

Аудио #1
Идентификатор : 2
Формат : AAC LC SBR
Формат/Информация : Advanced Audio Codec Low Complexity with Spectral Band Replication
Коммерческое название : HE-AAC
Настройки формата : Explicit
Идентификатор кодека : A_AAC-2
Продолжительность : 1 ч. 21 м.
Битрейт : 84,0 Кбит/сек
Каналы : 2 канала
Channel layout : L R
Частота : 48,0 КГц
Частота кадров : 23,438 кадра/сек (2048 SPF)
Метод сжатия : С потерями
Задержка видео : 31 мс.
Размер потока : 49,1 Мбайт (7%)
Заголовок : MVO-R5
Язык : Russian
Default : Да
Forced : Нет

Аудио #2
Идентификатор : 3
Формат : AAC LC SBR
Формат/Информация : Advanced Audio Codec Low Complexity with Spectral Band Replication
Коммерческое название : HE-AAC
Настройки формата : Explicit
Идентификатор кодека : A_AAC-2
Продолжительность : 1 ч. 21 м.
Битрейт : 84,0 Кбит/сек
Каналы : 2 канала
Channel layout : L R
Частота : 48,0 КГц
Частота кадров : 23,438 кадра/сек (2048 SPF)
Метод сжатия : С потерями
Задержка видео : 31 мс.
Размер потока : 49,1 Мбайт (7%)
Заголовок : DVO-НТВ+
Язык : Russian
Default : Нет
Forced : Нет

Текст #1
Идентификатор : 4
Формат : UTF-8
Идентификатор кодека : S_TEXT/UTF8
Идентификатор кодека/Информация : UTF-8 Plain Text
Продолжительность : 1 ч. 16 м.
Битрейт : 72 бит/сек
Count of elements : 722
Размер потока : 40,4 Кбайт (0%)
Заголовок : Full Rus
Язык : Russian
Default : Нет
Forced : Нет

Текст #2
Идентификатор : 5
Формат : UTF-8
Идентификатор кодека : S_TEXT/UTF8
Идентификатор кодека/Информация : UTF-8 Plain Text
Продолжительность : 1 ч. 16 м.
Битрейт : 43 бит/сек
Count of elements : 744
Размер потока : 24,3 Кбайт (0%)
Заголовок : Eng SDH
Язык : English
Default : Нет
Forced : Нет

Меню
00:00:00.000 : :Chapter 01
00:05:36.002 : :Chapter 02
00:13:13.001 : :Chapter 03
00:22:59.044 : :Chapter 04
00:38:00.904 : :Chapter 05
00:45:49.997 : :Chapter 06
00:52:46.997 : :Chapter 07
01:00:09.981 : :Chapter 08
01:07:19.911 : :Chapter 09
01:11:21.944 : :Chapter 10
01:12:51.993 : :Chapter 11
01:16:39.929 : :Chapter 12



   Похожие торренты   Торрент   Размер 
В этой теме нет новых непрочитанных сообщений. Замученный / The Tortured (2010) BDRemux 1080р | P, P2, L1

0 | 0

17.03 ГБ

В этой теме нет новых непрочитанных сообщений. 4.3.2.1 / 4.3.2.1 (2010) BDRip-AVC от ExKinoRay | D

11 | 1

745.71 МБ

В этой теме нет новых непрочитанных сообщений. Огнедышащий / Firebreather (2010) BDRip-AVC от ExKinoRay | D

5 | 2

744.51 МБ

В этой теме нет новых непрочитанных сообщений. Чрево / Womb (2010) BDRip-AVC от ExKinoRay | P

22 | 4

746 МБ

В этой теме нет новых непрочитанных сообщений. В клетке / Captifs (2010) BDRip-AVC от ExKinoRay | L2

0 | 0

1.73 ГБ

В этой теме нет новых непрочитанных сообщений. Лузеры / The Losers (2010) BDRip-AVC от ExKinoRay | D

7 | 1

746.39 МБ

В этой теме нет новых непрочитанных сообщений. Джона Хекс / Jonah Hex (2010) BDRip-AVC от ExKinoRay | P

0 | 0

1.3 ГБ




Вы не можете начинать темы
Вы не можете отвечать на сообщения
Вы не можете редактировать свои сообщения
Вы не можете удалять свои сообщения
Вы не можете добавлять вложения

Перейти:  
Контактная информация: rstracker[пёсик]yandex.ru
 Вход
ppkBB3cker v.2 © 2008-2014 @ PPK
[ Time : 0.034s | 18 Queries | GZIP : Off ]

cron