img image001 image001 image001 image001 image001 image001 image001 image001 image001 image001 image001 image001 image001 image001 image001

Planets Sun Sun Sun
Статистика раздачи
Автор: PriZraK | Размер: 1.45 ГБ | Добавлен: 23 мар 2022
Раздают: 0    Качают: 0
Скачать торрент
Скачать торрент
Описание торрента

СообщениеДобавлено: 23 мар 2022 

Информация о фильме
Название: Экстремальная работа
Оригинальное название: Geukhanjikeop / Extreme Job
Год выхода: 2019
Жанр: комедия, криминал, боевик
Режиссер: Ли Бён-хон
В ролях: Рю Сын-нён, Ли Хани, Чин Сон-гю, Ли Дон-хви, Кон Мён, Хо Джун-сок, Сон Ён-гю, Щин Ха-гюн, Ким И-сон, О Джон-сэ

О фильме:
У детективов из отдела по борьбе с наркотиками никак не получается ловить подозреваемых, зато прекрасно выходит устраивать автоаварии и получать нагоняи от начальства. Коллега из другой группы хоть и младше их капитана, а уже получил повышение. Однажды тот даёт этим неудачникам наводку, и вот уже наши герои целую неделю ведут наблюдение за бандой наркоторговцев, сидя в пустом кафе напротив. Когда выясняется, что преступники часто заказывают здесь доставку еды, копы выкупают помещение и начинают там работать под прикрытием. Внезапно их жареная курица становится невероятно популярной, заведение раскручивается, назревает конфликт между долгом и неожиданно найденным призванием.



Выпущено: Корея Южная
Студия: About Film
Продолжительность: 01:51:09
Озвучивание: Профессиональный (многоголосый) | iTunes
Субтитры: English

Файл
Формат: Matroska
Качество: BDRip-AVC [Extreme.Job.2019.KOREAN.1080p.BluRay.REMUX.AVC.DTS-HD.MA.5.1-FGT]
Видео: 960x402 at 24.000 fps, x264@L4.1, ~1484 kbps, 0.160 bpp
Аудио: AC3, 6 ch, ~384 kbps - | Русский | -
Формат субтитров: softsub (SRT)

***Релиз от: -=DoMiNo=-

x264 [info]: frame I:1841 Avg QP:13.78 size: 54483
x264 [info]: frame P:36756 Avg QP:17.48 size: 15695
x264 [info]: frame B:121474 Avg QP:18.95 size: 4595

General
Format : Matroska
Format version : Version 4
File size : 1.45 GiB
Duration : 1 h 51 min
Overall bit rate : 1 868 kb/s
Movie name : Экстремальная работа.(2019).BDRip-AVC.[-=DoMiNo=-]
Encoded date : UTC 2020-11-16 14:03:03
Writing application : mkvmerge v8.3.0 ('Over the Horizon') 64bit
Writing library : libebml v1.3.1 + libmatroska v1.4.2
Cover : Yes
Attachments : Cover.jpg / Cover 2.jpg

Video
ID : 1
Format : AVC
Format/Info : Advanced Video Codec
Format profile : High@L4.1
Format settings : CABAC / 12 Ref Frames
Format settings, CABAC : Yes
Format settings, Reference : 12 frames
Codec ID : V_MPEG4/ISO/AVC
Duration : 1 h 51 min
Bit rate : 1 484 kb/s
Width : 960 pixels
Height : 402 pixels
Display aspect ratio : 2.40:1
Frame rate mode : Constant
Frame rate : 24.000 FPS
Color space : YUV
Chroma subsampling : 4:2:0
Bit depth : 8 bits
Scan type : Progressive
Bits/(Pixel*Frame) : 0.160
Stream size : 1.15 GiB (79%)
Title : -=DoMiNo=-
Writing library : x264 core 161 r3027 4121277
Encoding settings : cabac=1 / ref=12 / deblock=1:-2:-2 / analyse=0x3:0x133 / me=umh / subme=11 / psy=1 / psy_rd=1.00:0.00 / mixed_ref=1 / me_range=32 / chroma_me=1 / trellis=2 / 8x8dct=1 / cqm=0 / deadzone=21,11 / fast_pskip=0 / chroma_qp_offset=-2 / threads=6 / lookahead_threads=1 / sliced_threads=0 / nr=0 / decimate=0 / interlaced=0 / bluray_compat=0 / constrained_intra=0 / bframes=11 / b_pyramid=2 / b_adapt=2 / b_bias=0 / direct=3 / weightb=1 / open_gop=0 / weightp=2 / keyint=250 / keyint_min=24 / scenecut=40 / intra_refresh=0 / rc=2pass / mbtree=0 / bitrate=1484 / ratetol=1.0 / qcomp=0.60 / qpmin=0 / qpmax=69 / qpstep=4 / cplxblur=20.0 / qblur=0.5 / ip_ratio=1.40 / pb_ratio=1.30 / aq=3:0.80
Language : English
Default : Yes
Forced : No
Color range : Limited
Color primaries : BT.709
Transfer characteristics : BT.709
Matrix coefficients : BT.709

Audio
ID : 2
Format : AC-3
Format/Info : Audio Coding 3
Commercial name : Dolby Digital
Codec ID : A_AC3
Duration : 1 h 51 min
Bit rate mode : Constant
Bit rate : 384 kb/s
Channel(s) : 6 channels
Channel layout : L R C LFE Ls Rs
Sampling rate : 48.0 kHz
Frame rate : 31.250 FPS (1536 SPF)
Compression mode : Lossy
Stream size : 305 MiB (21%)
Title : Профессиональный (многоголосый) | iTunes
Language : Russian
Service kind : Complete Main
Default : Yes
Forced : Yes

Text
ID : 3
Format : UTF-8
Codec ID : S_TEXT/UTF8
Codec ID/Info : UTF-8 Plain Text
Duration : 1 h 47 min
Bit rate : 52 b/s
Count of elements : 1607
Stream size : 41.5 KiB (0%)
Language : English
Default : No
Forced : No

Menu
00:00:00.000 : en:Chapter 01
00:07:25.291 : en:Chapter 02
00:17:19.791 : en:Chapter 03
00:26:57.458 : en:Chapter 04
00:35:21.125 : en:Chapter 05
00:46:18.083 : en:Chapter 06
00:56:10.750 : en:Chapter 07
01:04:23.500 : en:Chapter 08
01:13:56.208 : en:Chapter 09
01:23:06.583 : en:Chapter 10
01:31:29.916 : en:Chapter 11
01:39:09.041 : en:Chapter 12

   Похожие торренты   Торрент   Размер 
В этой теме нет новых непрочитанных сообщений. Экстремальная работа / Geukhanjikeob (2019) BDRip от MegaPeer | iTunes

0 | 0

2.13 ГБ

В этой теме нет новых непрочитанных сообщений. Экстремальная работа / Geukhanjikeob (2019) BDRip от MegaPeer | iTunes

0 | 0

1.46 ГБ

В этой теме нет новых непрочитанных сообщений. Экстремальная работа / Geukhanjikeob (2019) BDRip 1080p от ELEKTRI4KA | iTunes

0 | 0

10.07 ГБ

В этой теме нет новых непрочитанных сообщений. Экстремальная работа / Geukhanjikeob (2019) BDRip от Twister & ExKinoRay | iTunes

0 | 0

1.41 ГБ

В этой теме нет новых непрочитанных сообщений. Экстремальная работа / Geukhanjikeob (2019) HDRip от ELEKTRI4KA | iTunes

0 | 0

1.46 ГБ

В этой теме нет новых непрочитанных сообщений. Экстремальная работа / Geukhanjikeop (Ли Бён-хон) [2019, криминал, комедия, WEBDLRip] MVO

1 | 0

1.37 ГБ

В этой теме нет новых непрочитанных сообщений. Работа без авторства / Werk ohne Autor / Never Look Away (2018) HDRip-AVC | КПК | iTunes

0 | 0

800.15 МБ




Вы не можете начинать темы
Вы не можете отвечать на сообщения
Вы не можете редактировать свои сообщения
Вы не можете удалять свои сообщения
Вы не можете добавлять вложения

Перейти:  
Контактная информация: rstracker[пёсик]yandex.ru
 Вход
ppkBB3cker v.2 © 2008-2014 @ PPK
[ Time : 0.034s | 20 Queries | GZIP : Off ]

cron