img image001 image001 image001 image001 image001 image001 image001 image001 image001 image001 image001 image001 image001 image001 image001

Planets Sun Sun Sun
Статистика раздачи
Автор: PriZraK | Размер: 39.33 ГБ | Добавлен: 23 мар 2022
Раздают: 13    Качают: 1
Скачать торрент
Скачать торрент
Описание торрента

СообщениеДобавлено: 23 мар 2022 

Название: Человек-Паук
Оригинальное название: Spider-Man
Год выхода: 2002
Страна: США
Студия: Marvel Enterprises, Columbia Pictures Corporation
Жанр: Фэнтези, боевик, приключения
Продолжительность: ~ 02:01:12
Перевод: Дублированный, профессиональный (двухголосый), авторский

Режиссер: Сэм Рэйми
В ролях: Тоби Магуайр, Уиллем Дефо, Кирстен Данст, Джеймс Франко, Клифф Робертсон, Розмари Харрис, Дж.К. Симмонс, Джо Манганьелло

Описание: Питер Паркер – обыкновенный школьник. Однажды он отправился с классом на экскурсию, где его кусает странный паук-мутант. Через время парень почувствовал в себе нечеловеческую силу и ловкость в движении, а главное – умение лазать по стенам и метать стальную паутину. Свои способности он направляет на защиту слабых.



Качество: BDRip-HEVC 1080p
Видео: HEVC/x.265, 1920x1038, ~ 13 Mb/s
Аудио 1: AC3, 6 ch, 640 Kbps - Русский, Дубляж
Аудио 2: AC3, 6 ch, 448 Kbps - Русский, MVO
Аудио 3: AC3, 6 ch, 640 Kbps - Русский, DVO (Гланц и Назарова)
Аудио 4: AC3, 6 ch, 640 Kbps - Русский, AVO (В. Королёв)
Аудио 5: AC3, 6 ch, 640 Kbps - Русский, AVO (А. Гаврилов)
Аудио 6: AC3, 6 ch, 640 Kbps - Русский, AVO (Е. Рудой)
Аудио 7: AC3, 6 ch, 640 Kbps - Английский

Субтитры: Русские, английские

General
Unique ID : 312685083390322705152437400737320843591 (0xEB3CF4DEEB19ACBD0F1AB61F6080B947)
Complete name : G:Spider Man TrilogySpider-Man (2002).mkv
Format : Matroska
Format version : Version 4
File size : 14.5 GiB
Duration : 2 h 1 min
Overall bit rate : 17.2 Mb/s
Movie name : Spider Man (2002) 4K Remastered
Encoded date : UTC 2022-01-28 21:07:41
Writing application : mkvmerge v47.0.0 ('Black Flag') 64-bit
Writing library : libebml v1.3.10 + libmatroska v1.5.2
Cover : Yes
Attachments : cover.jpg

Video
ID : 1
Format : HEVC
Format/Info : High Efficiency Video Coding
Format profile : Main 10@L5.1@High
Codec ID : V_MPEGH/ISO/HEVC
Duration : 2 h 1 min
Bit rate : 12.9 Mb/s
Width : 1 920 pixels
Height : 1 038 pixels
Display aspect ratio : 1.85:1
Frame rate mode : Constant
Frame rate : 23.976 (24000/1001) FPS
Color space : YUV
Chroma subsampling : 4:2:0
Bit depth : 10 bits
Bits/(Pixel*Frame) : 0.269
Stream size : 10.9 GiB (75%)
Title : JS
Writing library : x265 3.5+12+14-106329cbd:[~ MaRk ~ JS] 10bit
Encoding settings : cpuid=1111039 / frame-threads=4 / numa-pools=16 / wpp / pmode / pme / no-psnr / no-ssim / log-level=2 / input-csp=1 / input-res=1920x1038 / interlace=0 / total-frames=174360 / level-idc=51 / high-tier=1 / uhd-bd=0 / ref=5 / no-allow-non-conformance / no-repeat-headers / annexb / no-aud / no-hrd / info / hash=0 / no-temporal-layers / open-gop / min-keyint=24 / keyint=240 / gop-lookahead=0 / bframes=12 / b-adapt=2 / b-pyramid / bframe-bias=0 / rc-lookahead=40 / lookahead-slices=0 / scenecut=40 / hist-scenecut=0 / radl=0 / no-splice / no-intra-refresh / ctu=32 / min-cu-size=8 / no-rect / no-amp / max-tu-size=32 / tu-inter-depth=3 / tu-intra-depth=3 / limit-tu=4 / rdoq-level=2 / dynamic-rd=0.00 / no-ssim-rd / signhide / no-tskip / nr-intra=0 / nr-inter=0 / no-constrained-intra / no-strong-intra-smoothing / max-merge=4 / limit-refs=1 / limit-modes / me=3 / subme=7 / merange=25 / temporal-mvp / no-frame-dup / no-hme / weightp / weightb / no-analyze-src-pics / deblock=-3:-3 / no-sao / no-sao-non-deblock / rd=6 / selective-sao=0 / no-early-skip / rskip / no-fast-intra / no-tskip-fast / no-cu-lossless / b-intra / no-splitrd-skip / rdpenalty=0 / psy-rd=2.00 / psy-rdoq=1.00 / no-rd-refine / no-lossless / cbqpoffs=0 / crqpoffs=0 / rc=crf / crf=19.1 / qcomp=0.65 / qpstep=4 / stats-write=0 / stats-read=0 / vbv-maxrate=80000 / vbv-bufsize=80000 / vbv-init=0.9 / crf-max=0.0 / crf-min=0.0 / ipratio=1.40 / pbratio=1.30 / aq-mode=2 / aq-strength=0.85 / cutree / zone-count=0 / no-strict-cbr / qg-size=32 / no-rc-grain / qpmax=69 / qpmin=0 / no-const-vbv / sar=1 / overscan=0 / videoformat=5 / range=0 / colorprim=1 / transfer=1 / colormatrix=1 / chromaloc=0 / display-window=0 / cll=0,0 / min-luma=0 / max-luma=1023 / log2-max-poc-lsb=8 / vui-timing-info / vui-hrd-info / slices=1 / no-opt-qp-pps / no-opt-ref-list-length-pps / no-multi-pass-opt-rps / scenecut-bias=0.05 / hist-threshold=0.03 / no-opt-cu-delta-qp / no-aq-motion / no-hdr10 / no-hdr10-opt / no-dhdr10-opt / no-idr-recovery-sei / analysis-reuse-level=0 / analysis-save-reuse-level=0 / analysis-load-reuse-level=0 / scale-factor=0 / refine-intra=0 / refine-inter=0 / refine-mv=1 / refine-ctu-distortion=0 / no-limit-sao / ctu-info=0 / no-lowpass-dct / refine-analysis-type=0 / copy-pic=1 / max-ausize-factor=1.0 / no-dynamic-refine / no-single-sei / no-hevc-aq / no-svt / no-field / qp-adaptation-range=1.00 / no-scenecut-aware-qpconformance-window-offsets / right=0 / bottom=0 /
Language : Russian
Default : Yes
Forced : No
Color range : Limited
Color primaries : BT.709
Transfer characteristics : BT.709
Matrix coefficients : BT.709

Audio #1
ID : 2
Format : AC-3
Format/Info : Audio Coding 3
Commercial name : Dolby Digital
Codec ID : A_AC3
Duration : 2 h 1 min
Bit rate mode : Constant
Bit rate : 640 kb/s
Channel(s) : 6 channels
Channel layout : L R C LFE Ls Rs
Sampling rate : 48.0 kHz
Frame rate : 31.250 FPS (1536 SPF)
Compression mode : Lossy
Stream size : 555 MiB (4%)
Title : Дубляж
Language : Russian
Service kind : Complete Main
Default : Yes
Forced : No

Audio #2
ID : 3
Format : AC-3
Format/Info : Audio Coding 3
Commercial name : Dolby Digital
Codec ID : A_AC3
Duration : 2 h 1 min
Bit rate mode : Constant
Bit rate : 448 kb/s
Channel(s) : 6 channels
Channel layout : L R C LFE Ls Rs
Sampling rate : 48.0 kHz
Frame rate : 31.250 FPS (1536 SPF)
Compression mode : Lossy
Stream size : 388 MiB (3%)
Title : MVO
Language : Russian
Service kind : Complete Main
Default : No
Forced : No

Audio #3
ID : 4
Format : AC-3
Format/Info : Audio Coding 3
Commercial name : Dolby Digital
Codec ID : A_AC3
Duration : 2 h 1 min
Bit rate mode : Constant
Bit rate : 640 kb/s
Channel(s) : 6 channels
Channel layout : L R C LFE Ls Rs
Sampling rate : 48.0 kHz
Frame rate : 31.250 FPS (1536 SPF)
Compression mode : Lossy
Stream size : 555 MiB (4%)
Title : Гланц и Назарова
Language : Russian
Service kind : Complete Main
Default : No
Forced : No

Audio #4
ID : 5
Format : AC-3
Format/Info : Audio Coding 3
Commercial name : Dolby Digital
Codec ID : A_AC3
Duration : 2 h 1 min
Bit rate mode : Constant
Bit rate : 640 kb/s
Channel(s) : 6 channels
Channel layout : L R C LFE Ls Rs
Sampling rate : 48.0 kHz
Frame rate : 31.250 FPS (1536 SPF)
Compression mode : Lossy
Stream size : 555 MiB (4%)
Title : В. Королёв
Language : Russian
Service kind : Complete Main
Default : No
Forced : No

Audio #5
ID : 6
Format : AC-3
Format/Info : Audio Coding 3
Commercial name : Dolby Digital
Codec ID : A_AC3
Duration : 2 h 1 min
Bit rate mode : Constant
Bit rate : 640 kb/s
Channel(s) : 6 channels
Channel layout : L R C LFE Ls Rs
Sampling rate : 48.0 kHz
Frame rate : 31.250 FPS (1536 SPF)
Compression mode : Lossy
Stream size : 555 MiB (4%)
Title : А. Гаврилов
Language : Russian
Service kind : Complete Main
Default : No
Forced : No

Audio #6
ID : 7
Format : AC-3
Format/Info : Audio Coding 3
Commercial name : Dolby Digital
Codec ID : A_AC3
Duration : 2 h 1 min
Bit rate mode : Constant
Bit rate : 640 kb/s
Channel(s) : 6 channels
Channel layout : L R C LFE Ls Rs
Sampling rate : 48.0 kHz
Frame rate : 31.250 FPS (1536 SPF)
Compression mode : Lossy
Stream size : 555 MiB (4%)
Title : Е. Рудой
Language : Russian
Service kind : Complete Main
Default : No
Forced : No

Audio #7
ID : 8
Format : AC-3
Format/Info : Audio Coding 3
Commercial name : Dolby Digital
Codec ID : A_AC3
Duration : 2 h 1 min
Bit rate mode : Constant
Bit rate : 640 kb/s
Channel(s) : 6 channels
Channel layout : L R C LFE Ls Rs
Sampling rate : 48.0 kHz
Frame rate : 31.250 FPS (1536 SPF)
Compression mode : Lossy
Stream size : 555 MiB (4%)
Title : Original
Language : English
Service kind : Complete Main
Default : No
Forced : No

Text #1
ID : 9
Format : UTF-8
Codec ID : S_TEXT/UTF8
Codec ID/Info : UTF-8 Plain Text
Duration : 1 h 54 min
Bit rate : 85 b/s
Count of elements : 1211
Stream size : 71.7 KiB (0%)
Title : Full
Language : Russian
Default : No
Forced : No

Text #2
ID : 10
Format : UTF-8
Codec ID : S_TEXT/UTF8
Codec ID/Info : UTF-8 Plain Text
Duration : 1 h 52 min
Bit rate : 48 b/s
Count of elements : 1200
Stream size : 40.2 KiB (0%)
Title : Full
Language : English
Default : No
Forced : No

Text #3
ID : 11
Format : UTF-8
Codec ID : S_TEXT/UTF8
Codec ID/Info : UTF-8 Plain Text
Duration : 1 h 54 min
Bit rate : 52 b/s
Count of elements : 1381
Stream size : 44.4 KiB (0%)
Title : SDH
Language : English
Default : No
Forced : No

Menu
00:00:00.000 : :Start
00:06:29.472 : :Columbia University Research Lab
00:09:22.895 : :Bitten by a spider
00:14:56.186 : :Norman tests the Performance Enhancers
00:17:50.652 : :A big change
00:21:53.603 : :Great reflexes
00:23:28.615 : :Fight with Flash
00:25:18.767 : :Scaling the heights
00:34:35.114 : :With great power comes great responsibility
00:40:22.169 : :The wrestling match
00:41:44.126 : :Enter the thief
00:43:13.882 : :The death of Uncle Ben
00:44:40.010 : :Chasing Uncle Ben's killer
00:54:32.978 : :Spider-Man to the rescue
00:55:52.557 : :J. Jonah Jameson
01:00:48.936 : :Peter's photos of Spider-Man
01:04:20.773 : :World Unity Festival
01:05:57.036 : :Battle over Times Square
01:12:12.369 : :Norman meets the Goblin
01:14:18.871 : :Goblin terrorizes the Bugle
01:15:48.669 : :The Goblin's proposal
01:19:35.520 : :The alley kiss
01:22:06.463 : :Hot time with the Goblin
01:25:13.608 : :Thanksgiving dinner
01:30:39.225 : :Goblin attacks Aunt May
01:39:36.679 : :The Queensboro Bridge
01:45:08.385 : :A final battle
01:50:27.829 : :Norman's funeral


#77

Название: Человек-Паук 2
Оригинальное название: Spider-Man 2
Год выхода: 2004
Страна: США
Студия: Marvel Enterprises, Columbia Pictures Corporation
Жанр: Фэнтези, боевик, приключения
Продолжительность: ~ 02:07:28
Перевод: Дублированный, профессиональный (двухголосый), авторский

Режиссер: Сэм Рэйми
В ролях: Тоби Магуайр, Альфред Молина, Кирстен Данст, Джеймс Франко, Клифф Робертсон, Розмари Харрис, Дж.К. Симмонс, Джо Манганьелло

Описание: С момента событий, произошедших в первом фильме, прошло два года. Тихоня Питер Паркер сталкивается с новыми проблемами: он борется со своим «даром и проклятьем», отчаянно пытаясь балансировать на грани двух своих жизней: метающего паутину супергероя Человека-Паука и обычного студента колледжа…



Качество: BDRip-HEVC 1080p
Видео: HEVC/x.265, 1920x804, ~ 11 Mb/s
Аудио 1: AC3, 6 ch, 448 Kbps - Русский, Дубляж
Аудио 2: AC3, 6 ch, 448 Kbps - Русский, DVO (Tycoon Studio)
Аудио 3: AC3, 6 ch, 640 Kbps - Русский, AVO (В. Королев)
Аудио 4: AC3, 6 ch, 640 Kbps - Русский, AVO (А. Гаврилов)
Аудио 5: AC3, 6 ch, 640 Kbps - Английский

Субтитры: Русские, Английские

General
Unique ID : 92388106838089484332862166393424594439 (0x45814D5978A16CAA2CBF30BD368A4607)
Complete name : G:Spider Man TrilogySpider-Man 2 (2004).mkv
Format : Matroska
Format version : Version 4
File size : 12.0 GiB
Duration : 2 h 7 min
Overall bit rate : 13.5 Mb/s
Movie name : Spider Man 2 (2004) 4K Remastered
Encoded date : UTC 2022-01-29 10:49:07
Writing application : mkvmerge v47.0.0 ('Black Flag') 64-bit
Writing library : libebml v1.3.10 + libmatroska v1.5.2
Cover : Yes
Attachments : cover.jpg

Video
ID : 1
Format : HEVC
Format/Info : High Efficiency Video Coding
Format profile : Main 10@L5.1@High
Codec ID : V_MPEGH/ISO/HEVC
Duration : 2 h 7 min
Bit rate : 10.7 Mb/s
Width : 1 920 pixels
Height : 802 pixels
Display aspect ratio : 2.40:1
Frame rate mode : Constant
Frame rate : 23.976 (24000/1001) FPS
Color space : YUV
Chroma subsampling : 4:2:0
Bit depth : 10 bits
Bits/(Pixel*Frame) : 0.289
Stream size : 9.49 GiB (79%)
Title : JS
Writing library : x265 3.5+12+14-106329cbd:[~ MaRk ~ JS] 10bit
Encoding settings : cpuid=1111039 / frame-threads=4 / numa-pools=16 / wpp / pmode / pme / no-psnr / no-ssim / log-level=2 / input-csp=1 / input-res=1920x802 / interlace=0 / total-frames=183372 / level-idc=51 / high-tier=1 / uhd-bd=0 / ref=5 / no-allow-non-conformance / no-repeat-headers / annexb / no-aud / no-hrd / info / hash=0 / no-temporal-layers / open-gop / min-keyint=24 / keyint=240 / gop-lookahead=0 / bframes=16 / b-adapt=2 / b-pyramid / bframe-bias=0 / rc-lookahead=40 / lookahead-slices=0 / scenecut=40 / hist-scenecut=0 / radl=0 / no-splice / no-intra-refresh / ctu=32 / min-cu-size=8 / no-rect / no-amp / max-tu-size=32 / tu-inter-depth=3 / tu-intra-depth=3 / limit-tu=4 / rdoq-level=2 / dynamic-rd=0.00 / no-ssim-rd / signhide / no-tskip / nr-intra=0 / nr-inter=0 / no-constrained-intra / no-strong-intra-smoothing / max-merge=4 / limit-refs=1 / limit-modes / me=3 / subme=7 / merange=25 / temporal-mvp / no-frame-dup / no-hme / weightp / weightb / no-analyze-src-pics / deblock=-3:-3 / no-sao / no-sao-non-deblock / rd=6 / selective-sao=0 / no-early-skip / rskip / no-fast-intra / no-tskip-fast / no-cu-lossless / b-intra / no-splitrd-skip / rdpenalty=0 / psy-rd=2.00 / psy-rdoq=1.00 / no-rd-refine / no-lossless / cbqpoffs=0 / crqpoffs=0 / rc=crf / crf=17.9 / qcomp=0.65 / qpstep=4 / stats-write=0 / stats-read=0 / vbv-maxrate=80000 / vbv-bufsize=80000 / vbv-init=0.9 / crf-max=0.0 / crf-min=0.0 / ipratio=1.40 / pbratio=1.30 / aq-mode=2 / aq-strength=0.85 / cutree / zone-count=0 / no-strict-cbr / qg-size=32 / no-rc-grain / qpmax=69 / qpmin=0 / no-const-vbv / sar=1 / overscan=0 / videoformat=5 / range=0 / colorprim=1 / transfer=1 / colormatrix=1 / chromaloc=0 / display-window=0 / cll=0,0 / min-luma=0 / max-luma=1023 / log2-max-poc-lsb=8 / vui-timing-info / vui-hrd-info / slices=1 / no-opt-qp-pps / no-opt-ref-list-length-pps / no-multi-pass-opt-rps / scenecut-bias=0.05 / hist-threshold=0.03 / no-opt-cu-delta-qp / no-aq-motion / no-hdr10 / no-hdr10-opt / no-dhdr10-opt / no-idr-recovery-sei / analysis-reuse-level=0 / analysis-save-reuse-level=0 / analysis-load-reuse-level=0 / scale-factor=0 / refine-intra=0 / refine-inter=0 / refine-mv=1 / refine-ctu-distortion=0 / no-limit-sao / ctu-info=0 / no-lowpass-dct / refine-analysis-type=0 / copy-pic=1 / max-ausize-factor=1.0 / no-dynamic-refine / no-single-sei / no-hevc-aq / no-svt / no-field / qp-adaptation-range=1.00 / no-scenecut-aware-qpconformance-window-offsets / right=0 / bottom=0 /
Language : Russian
Default : Yes
Forced : No
Color range : Limited
Color primaries : BT.709
Transfer characteristics : BT.709
Matrix coefficients : BT.709

Audio #1
ID : 2
Format : AC-3
Format/Info : Audio Coding 3
Commercial name : Dolby Digital
Codec ID : A_AC3
Duration : 2 h 7 min
Bit rate mode : Constant
Bit rate : 448 kb/s
Channel(s) : 6 channels
Channel layout : L R C LFE Ls Rs
Sampling rate : 48.0 kHz
Frame rate : 31.250 FPS (1536 SPF)
Compression mode : Lossy
Stream size : 408 MiB (3%)
Title : Дубляж
Language : Russian
Service kind : Complete Main
Default : Yes
Forced : No

Audio #2
ID : 3
Format : AC-3
Format/Info : Audio Coding 3
Commercial name : Dolby Digital
Codec ID : A_AC3
Duration : 2 h 7 min
Bit rate mode : Constant
Bit rate : 448 kb/s
Channel(s) : 6 channels
Channel layout : L R C LFE Ls Rs
Sampling rate : 48.0 kHz
Frame rate : 31.250 FPS (1536 SPF)
Compression mode : Lossy
Stream size : 408 MiB (3%)
Title : Tycoon Studio
Language : Russian
Service kind : Complete Main
Default : No
Forced : No

Audio #3
ID : 4
Format : AC-3
Format/Info : Audio Coding 3
Commercial name : Dolby Digital
Codec ID : A_AC3
Duration : 2 h 7 min
Bit rate mode : Constant
Bit rate : 640 kb/s
Channel(s) : 6 channels
Channel layout : L R C LFE Ls Rs
Sampling rate : 48.0 kHz
Frame rate : 31.250 FPS (1536 SPF)
Compression mode : Lossy
Stream size : 583 MiB (5%)
Title : В. Королев
Language : Russian
Service kind : Complete Main
Default : No
Forced : No

Audio #4
ID : 5
Format : AC-3
Format/Info : Audio Coding 3
Commercial name : Dolby Digital
Codec ID : A_AC3
Duration : 2 h 7 min
Bit rate mode : Constant
Bit rate : 640 kb/s
Channel(s) : 6 channels
Channel layout : L R C LFE Ls Rs
Sampling rate : 48.0 kHz
Frame rate : 31.250 FPS (1536 SPF)
Compression mode : Lossy
Stream size : 583 MiB (5%)
Title : А. Гаврилов
Language : Russian
Service kind : Complete Main
Default : No
Forced : No

Audio #5
ID : 6
Format : AC-3
Format/Info : Audio Coding 3
Commercial name : Dolby Digital
Codec ID : A_AC3
Duration : 2 h 7 min
Bit rate mode : Constant
Bit rate : 640 kb/s
Channel(s) : 6 channels
Channel layout : L R C LFE Ls Rs
Sampling rate : 48.0 kHz
Frame rate : 31.250 FPS (1536 SPF)
Compression mode : Lossy
Stream size : 583 MiB (5%)
Title : Original
Language : English
Service kind : Complete Main
Default : No
Forced : No

Text #1
ID : 7
Format : UTF-8
Codec ID : S_TEXT/UTF8
Codec ID/Info : UTF-8 Plain Text
Duration : 2 h 0 min
Bit rate : 69 b/s
Count of elements : 1045
Stream size : 61.7 KiB (0%)
Title : Full
Language : Russian
Default : No
Forced : No

Text #2
ID : 8
Format : UTF-8
Codec ID : S_TEXT/UTF8
Codec ID/Info : UTF-8 Plain Text
Duration : 1 h 58 min
Bit rate : 69 b/s
Count of elements : 1094
Stream size : 60.8 KiB (0%)
Title : Full v2
Language : Russian
Default : No
Forced : No

Text #3
ID : 9
Format : UTF-8
Codec ID : S_TEXT/UTF8
Codec ID/Info : UTF-8 Plain Text
Duration : 2 h 4 min
Bit rate : 37 b/s
Count of elements : 1106
Stream size : 33.7 KiB (0%)
Title : Full
Language : English
Default : No
Forced : No

Text #4
ID : 10
Format : UTF-8
Codec ID : S_TEXT/UTF8
Codec ID/Info : UTF-8 Plain Text
Duration : 2 h 6 min
Bit rate : 45 b/s
Count of elements : 1437
Stream size : 41.9 KiB (0%)
Title : Full SDH
Language : English
Default : No
Forced : No

Menu
00:00:00.000 : :Main Titles
00:03:27.457 : :Pizza Man
00:07:24.861 : :J. Jonah Jameson
00:08:52.782 : :Dr. Connors
00:10:06.272 : :"Surprise!"
00:14:28.867 : :Peter and Mj in the Backyard
00:17:07.358 : :Mr. Ditkovich
00:18:55.467 : :Otto Octavius
00:22:12.414 : :Wash 'n Dry
00:22:50.452 : :The Importance of Being Earnest
00:24:23.628 : :Car Chase
00:26:22.038 : :The Importance of Being on Time
00:28:27.497 : :Web Failure
00:29:34.981 : :The Elevator
00:31:03.569 : :Peter Calls Mj
00:33:09.779 : :Otto's Demonstration
00:39:50.429 : :Horror Hospital
00:41:50.632 : :Ock Awakens to the Horror
00:43:09.002 : :New Villain in Town
00:44:40.093 : :Doc Ock's Lair
00:46:57.105 : :Bank Heist
00:50:01.039 : :Battle Building
00:53:02.137 : :Planetarium Party
00:58:04.647 : :Spidey Crash Lands in Alley
00:59:36.155 : :Ock Rebuilds
01:00:01.347 : :Diagnosis
01:01:31.145 : :Spider-Man No More
01:03:40.274 : :"Raindrops Keep Falling on My Head"
01:05:24.295 : :Peter Attends Mj's Play
01:08:14.298 : :Jameson Gets the Suit
01:09:40.551 : :Peter's Confession
01:13:48.298 : :One More Little Chore
01:16:42.222 : :Peter and the Burning Building
01:19:16.042 : :Frustration
01:21:25.839 : :Peter and Aunt May in the Backyard
01:25:16.069 : :"My Back! My Back!"
01:26:49.245 : :Mj Doubts John's The One
01:28:11.160 : :"Do You Love Me, or Not?"
01:30:40.017 : :Enter the Octopus
01:33:05.037 : :He's Back
01:34:12.646 : :Clock Tower Fight
01:35:10.746 : :The Train
01:37:12.201 : :A Train to Catch
01:39:56.281 : :Grateful Train Passengers
01:42:38.443 : :Harry Learns the Truth About Peter
01:44:52.661 : :The Final Confrontation
01:48:03.476 : :Peter Appeals to Otto
01:53:07.446 : :Web Love
01:55:30.006 : :The Return of the Green Goblin
01:57:56.735 : :Here Comes the Bride
02:01:54.306 : :The Final Swing
02:02:43.981 : :End Credits


#77

Название: Человек-Паук 3
Оригинальное название: Spider-Man 3
Год выхода: 2007
Страна: США
Студия: Marvel Enterprises, Columbia Pictures Corporation
Жанр: Фэнтези, боевик, приключения
Продолжительность: ~ 02:19:11
Перевод: Дублированный, профессиональный (двухголосый), авторский

Режиссер: Сэм Рэйми
В ролях: Тоби Магуайр, Тофер Грейс, Кирстен Данст, Джеймс Франко, Клифф Робертсон, Розмари Харрис, Дж.К. Симмонс, Джо Манганьелло

Описание: Прошло пять лет с тех пор, как Питер осознал, что «с Великой силой приходит Великая ответственность!», и три года с тех пор, как он отказался быть борцом за справедливость. Но сейчас кажется, Питер прекрасно научился жить несколькими жизнями. Он хорошо учится, Нью-Йорк признал его героем, отношения с Мэри Джейн прочные. Питер даже намеревается сделать ей предложение! Но к сожалению, его лучший друг Гарри Озборн по-прежнему считает, что именно Человек-паук несет ответственность за безвременную кончину его отца.



Качество: BDRip-HEVC 1080p
Видео: HEVC/x.265, 1920x800, ~ 11 Mb/s
Аудио 1: AC3, 6 ch, 640 Kbps - Русский, Дубляж
Аудио 2: AC3, 6 ch, 640 Kbps - Русский, AVO (А. Гаврилов)
Аудио 3: AC3, 6 ch, 640 Kbps - Русский, AVO (В. Королёв)
Аудио 4: AC3, 6 ch, 640 Kbps - Английский

Субтитры: Русские, Английские

General
Unique ID : 282160116361941679138144417383056931094 (0xD4460FCCF8007C18A25D7EE2EBC7F916)
Complete name : G:Spider Man TrilogySpider-Man 3 (2007).mkv
Format : Matroska
Format version : Version 4
File size : 12.8 GiB
Duration : 2 h 19 min
Overall bit rate : 13.2 Mb/s
Movie name : Spider Man 3 (2007) 4K Remastered
Encoded date : UTC 2022-01-29 14:29:55
Writing application : mkvmerge v47.0.0 ('Black Flag') 64-bit
Writing library : libebml v1.3.10 + libmatroska v1.5.2
Cover : Yes
Attachments : cover.jpg

Video
ID : 1
Format : HEVC
Format/Info : High Efficiency Video Coding
Format profile : Main 10@L5.1@High
Codec ID : V_MPEGH/ISO/HEVC
Duration : 2 h 19 min
Bit rate : 10.6 Mb/s
Width : 1 920 pixels
Height : 800 pixels
Display aspect ratio : 2.40:1
Frame rate mode : Constant
Frame rate : 23.976 (24000/1001) FPS
Color space : YUV
Chroma subsampling : 4:2:0
Bit depth : 10 bits
Bits/(Pixel*Frame) : 0.288
Stream size : 10.3 GiB (81%)
Title : JS
Writing library : x265 3.5+12+14-106329cbd:[~ MaRk ~ JS] 10bit
Encoding settings : cpuid=1111039 / frame-threads=4 / numa-pools=16 / wpp / pmode / pme / no-psnr / no-ssim / log-level=2 / input-csp=1 / input-res=1920x800 / interlace=0 / total-frames=200231 / level-idc=51 / high-tier=1 / uhd-bd=0 / ref=5 / no-allow-non-conformance / no-repeat-headers / annexb / no-aud / no-hrd / info / hash=0 / no-temporal-layers / open-gop / min-keyint=24 / keyint=240 / gop-lookahead=0 / bframes=14 / b-adapt=2 / b-pyramid / bframe-bias=0 / rc-lookahead=40 / lookahead-slices=0 / scenecut=40 / hist-scenecut=0 / radl=0 / no-splice / no-intra-refresh / ctu=32 / min-cu-size=8 / no-rect / no-amp / max-tu-size=32 / tu-inter-depth=3 / tu-intra-depth=3 / limit-tu=4 / rdoq-level=2 / dynamic-rd=0.00 / no-ssim-rd / signhide / no-tskip / nr-intra=0 / nr-inter=0 / no-constrained-intra / no-strong-intra-smoothing / max-merge=4 / limit-refs=1 / limit-modes / me=3 / subme=7 / merange=25 / temporal-mvp / no-frame-dup / no-hme / weightp / weightb / no-analyze-src-pics / deblock=-3:-3 / no-sao / no-sao-non-deblock / rd=6 / selective-sao=0 / no-early-skip / rskip / no-fast-intra / no-tskip-fast / no-cu-lossless / b-intra / no-splitrd-skip / rdpenalty=0 / psy-rd=2.00 / psy-rdoq=1.00 / no-rd-refine / no-lossless / cbqpoffs=0 / crqpoffs=0 / rc=crf / crf=17.8 / qcomp=0.65 / qpstep=4 / stats-write=0 / stats-read=0 / vbv-maxrate=80000 / vbv-bufsize=80000 / vbv-init=0.9 / crf-max=0.0 / crf-min=0.0 / ipratio=1.40 / pbratio=1.30 / aq-mode=2 / aq-strength=0.85 / cutree / zone-count=0 / no-strict-cbr / qg-size=32 / no-rc-grain / qpmax=69 / qpmin=0 / no-const-vbv / sar=1 / overscan=0 / videoformat=5 / range=0 / colorprim=1 / transfer=1 / colormatrix=1 / chromaloc=0 / display-window=0 / cll=0,0 / min-luma=0 / max-luma=1023 / log2-max-poc-lsb=8 / vui-timing-info / vui-hrd-info / slices=1 / no-opt-qp-pps / no-opt-ref-list-length-pps / no-multi-pass-opt-rps / scenecut-bias=0.05 / hist-threshold=0.03 / no-opt-cu-delta-qp / no-aq-motion / no-hdr10 / no-hdr10-opt / no-dhdr10-opt / no-idr-recovery-sei / analysis-reuse-level=0 / analysis-save-reuse-level=0 / analysis-load-reuse-level=0 / scale-factor=0 / refine-intra=0 / refine-inter=0 / refine-mv=1 / refine-ctu-distortion=0 / no-limit-sao / ctu-info=0 / no-lowpass-dct / refine-analysis-type=0 / copy-pic=1 / max-ausize-factor=1.0 / no-dynamic-refine / no-single-sei / no-hevc-aq / no-svt / no-field / qp-adaptation-range=1.00 / no-scenecut-aware-qpconformance-window-offsets / right=0 / bottom=0 /
Language : Russian
Default : Yes
Forced : No
Color range : Limited
Color primaries : BT.709
Transfer characteristics : BT.709
Matrix coefficients : BT.709

Audio #1
ID : 2
Format : AC-3
Format/Info : Audio Coding 3
Commercial name : Dolby Digital
Codec ID : A_AC3
Duration : 2 h 19 min
Bit rate mode : Constant
Bit rate : 640 kb/s
Channel(s) : 6 channels
Channel layout : L R C LFE Ls Rs
Sampling rate : 48.0 kHz
Frame rate : 31.250 FPS (1536 SPF)
Compression mode : Lossy
Stream size : 637 MiB (5%)
Title : Дубляж
Language : Russian
Service kind : Complete Main
Default : Yes
Forced : No

Audio #2
ID : 3
Format : AC-3
Format/Info : Audio Coding 3
Commercial name : Dolby Digital
Codec ID : A_AC3
Duration : 2 h 19 min
Bit rate mode : Constant
Bit rate : 640 kb/s
Channel(s) : 6 channels
Channel layout : L R C LFE Ls Rs
Sampling rate : 48.0 kHz
Frame rate : 31.250 FPS (1536 SPF)
Compression mode : Lossy
Stream size : 637 MiB (5%)
Title : А. Гаврилов
Language : Russian
Service kind : Complete Main
Default : No
Forced : No

Audio #3
ID : 4
Format : AC-3
Format/Info : Audio Coding 3
Commercial name : Dolby Digital
Codec ID : A_AC3
Duration : 2 h 19 min
Bit rate mode : Constant
Bit rate : 640 kb/s
Channel(s) : 6 channels
Channel layout : L R C LFE Ls Rs
Sampling rate : 48.0 kHz
Frame rate : 31.250 FPS (1536 SPF)
Compression mode : Lossy
Stream size : 637 MiB (5%)
Title : В. Королёв
Language : Russian
Service kind : Complete Main
Default : No
Forced : No

Audio #4
ID : 5
Format : AC-3
Format/Info : Audio Coding 3
Commercial name : Dolby Digital
Codec ID : A_AC3
Duration : 2 h 19 min
Bit rate mode : Constant
Bit rate : 640 kb/s
Channel(s) : 6 channels
Channel layout : L R C LFE Ls Rs
Sampling rate : 48.0 kHz
Frame rate : 31.250 FPS (1536 SPF)
Compression mode : Lossy
Stream size : 637 MiB (5%)
Title : Original
Language : English
Service kind : Complete Main
Default : No
Forced : No

Text #1
ID : 6
Format : UTF-8
Codec ID : S_TEXT/UTF8
Codec ID/Info : UTF-8 Plain Text
Duration : 2 h 18 min
Bit rate : 1 b/s
Count of elements : 35
Stream size : 1.63 KiB (0%)
Title : Forced
Language : Russian
Default : No
Forced : No

Text #2
ID : 7
Format : UTF-8
Codec ID : S_TEXT/UTF8
Codec ID/Info : UTF-8 Plain Text
Duration : 2 h 8 min
Bit rate : 61 b/s
Count of elements : 1144
Stream size : 57.8 KiB (0%)
Title : Full
Language : Russian
Default : No
Forced : No

Text #3
ID : 8
Format : UTF-8
Codec ID : S_TEXT/UTF8
Codec ID/Info : UTF-8 Plain Text
Duration : 2 h 15 min
Bit rate : 36 b/s
Count of elements : 1149
Stream size : 35.9 KiB (0%)
Title : full
Language : English
Default : No
Forced : No

Text #4
ID : 9
Format : UTF-8
Codec ID : S_TEXT/UTF8
Codec ID/Info : UTF-8 Plain Text
Duration : 2 h 18 min
Bit rate : 46 b/s
Count of elements : 1611
Stream size : 47.1 KiB (0%)
Title : SDH
Language : English
Default : No
Forced : No

Menu
00:00:00.000 : :01. Main Title
00:03:11.524 : :02. NY Loves Spidey
00:04:39.737 : :03. It's Wonderful
00:07:59.770 : :04. The Goblin's Lair
00:08:33.679 : :05. Web Love
00:10:30.254 : :06. Flint Marko
00:13:54.708 : :07. Give Her This
00:16:55.013 : :08. Peter vs. Harry
00:22:24.301 : :09. Marko Atomized
00:24:44.941 : :10. Some Memory Impairment
00:27:11.546 : :11. Birth of Sandman
00:30:12.644 : :12. The Review
00:32:31.240 : :13. Crane Disaster
00:36:10.334 : :14. Daily Bugle
00:39:43.964 : :15. 'nuff Said
00:40:08.489 : :16. Welcome Home Harry!
00:41:43.209 : :17. One Critic?
00:43:20.014 : :18. Key to the City
00:44:43.472 : :19. Sand Truck
00:46:39.004 : :20. A Good Show
00:49:24.544 : :21. Armored Car
00:51:53.151 : :22. Engagement Dinner
00:59:27.730 : :23. We Were Wrong
01:03:30.473 : :24. The Symbiote Strikes
01:06:34.532 : :25. Bank Robbery
01:08:07.416 : :26. Subway
01:10:45.823 : :27. Like a Prison
01:13:50.592 : :28. Lonely Girl
01:15:23.393 : :29. Calling a Woman
01:16:42.264 : :30. A Little Self Deception
01:19:21.715 : :31. Attack His Heart!
01:22:16.681 : :32. It's Over
01:24:21.347 : :33. The Other Guy
01:27:08.348 : :34. Strawberries
01:30:17.787 : :35. Dirt in Your Eye
01:32:43.474 : :36. Bad Peter
01:35:14.375 : :37. Return of the Sandman
01:35:53.497 : :38. Jazz Club
01:40:46.331 : :39. the Bell Tower
01:44:15.624 : :40. Forgive Yourself
01:47:20.225 : :41. The Team-Up
01:49:10.794 : :42. City in Crisis
01:52:52.724 : :43. The Return of Spider-Man
01:56:34.570 : :44. The Giant Sandman
01:59:57.106 : :45. Film's Extra
02:00:28.346 : :46. Team-Work
02:02:26.756 : :47. Spidey vs. Venom
02:04:29.378 : :48. Sound Cage
02:06:11.313 : :49. I Didn't Want This
02:09:33.474 : :50. You're My Friend
02:11:56.491 : :51. You or No One
02:13:59.197 : :52. End Credits


Релиз от: JS

   Похожие торренты   Торрент   Размер 
В этой теме нет новых непрочитанных сообщений. Человек-Паук / Spider-Man (2002) WEB-DL-HEVC 2160p | 4K | Dolby Vision TV | D, P, P1, A, L1 | Лицензия

14 | 0

25.2 ГБ

В этой теме нет новых непрочитанных сообщений. Человек-паук: Нет пути домой / Spider-Man: No Way Home (2021) BDRip-HEVC 1080p | D

211 | 45

6.81 ГБ

В этой теме нет новых непрочитанных сообщений. Человек-паук: Нет пути домой / Spider-Man: No Way Home (2021) UHD BDRip-HEVC 1080p | HDR | D

108 | 33

7.51 ГБ

В этой теме нет новых непрочитанных сообщений. Властелин колец: Трилогия / The Lord Of The Rings: Trilogy (2001-2003) BDRip-HEVC 1080p от HEVC-CLUB | D, P, A | Extended Remastered

23 | 6

71.69 ГБ

В этой теме нет новых непрочитанных сообщений. Час пик: Трилогия / Rush Hour: Trilogy (1998-2007) BDRip-HEVC 1080p от RIPS CLUB | D, P, P2, A

16 | 4

22.35 ГБ

В этой теме нет новых непрочитанных сообщений. Человек дождя / Rain Man (1988) BDRip-HEVC 1080p от HEVC-CLUB | D, P, P2, A

0 | 0

11.74 ГБ

В этой теме нет новых непрочитанных сообщений. Человек из стали / Man of Steel (2013) BDRip-HEVC 1080p от HEVC-CLUB | Лицензия

0 | 0

13.22 ГБ




Вы не можете начинать темы
Вы не можете отвечать на сообщения
Вы не можете редактировать свои сообщения
Вы не можете удалять свои сообщения
Вы не можете добавлять вложения

Перейти:  
Контактная информация: rstracker[пёсик]yandex.ru
 Вход
ppkBB3cker v.2 © 2008-2014 @ PPK
[ Time : 0.022s | 17 Queries | GZIP : Off ]

cron