img image001 image001 image001 image001 image001 image001 image001 image001 image001 image001 image001 image001 image001 image001 image001

Planets Sun Sun Sun
Статистика раздачи
Автор: PriZraK | Размер: 27.93 ГБ | Добавлен: 23 мар 2022
Раздают: 0    Качают: 0
Скачать торрент
Скачать торрент
Описание торрента

СообщениеДобавлено: 23 мар 2022 

Жанр: Драма, мелодрама
Год выпуска: 2021
Режиссёр: Педро Альмодовар / Pedro Almodovar
В ролях: Пенелопа Крус, Милена Смит, Исраэль Элехальде, Айтана Санчес-Хихон, Хульета Серрано, Росси де Пальма, Педро Касабланк, Даниэла Сантьяго, Ана Пелетейро, Хосе Хавьер Домингес

Описание:
В одной родильной палате оказываются две будущие матери-одиночки: 40-летняя фотограф Дженис и несовершеннолетняя Ана. У обеих рожаются девочки, но после больницы пути женщин расходятся. Дженис разрывается между работой и уходом за ребёнком, Ана же полностью погружается в заботу о дочке, и, хотя обе об этом даже не догадываются, их судьбы уже переплелись самым невероятным образом.



Страна: Испания
Продолжительность: 02:02:39
Перевод 1: Профессиональный (дублированный) | (iTunes)
Перевод 2: Авторский (одноголосый закадровый) | (Р. Янкелевич)
Cубтитры: Русские (Forced, Full), Английские (Full)
Оригинальная аудиодорожка: Испанский

Тип релиза: BDRemux 1080p
Контейнер: MKV
Видео: AVC/H.264, 1920x1080, ~28000 Kbps avg, 24.000 fps
Аудио 1: Русский | AC-3, 6 ch, 384 Kbps, 48.0 kHz Dub iTunes
Аудио 2: Русский | AC-3, 6 ch, 384 Kbps, 48.0 kHz AVO Р. Янкелевич
Аудио 3: Испанский | DTS-HD MA, 6 ch, 3828 Kbps, 48.0 kHz, 24-bit (DTS Core: 5.1 / 48 kHz / 1509 kbps / 24-bit)
Формат субтитров: softsub (SRT)

Marchelush TeamHD id=25605

General
Unique ID : 42612588278078024963171646762553127914 (0x200EE2CF67DA8C28343F454BBEFF33EA)
Complete name : /Volumes/Promise Pegasus/Madres.Paralelas.2021.BDRemux.1080p.pk.mkv
Format : Matroska
Format version : Version 4
File size : 27.9 GiB
Duration : 2 h 2 min
Overall bit rate mode : Variable
Overall bit rate : 32.6 Mb/s
Movie name : Madres paralelas 2021 BDRemux 1080p pk
Encoded date : UTC 2022-03-05 12:30:39
Writing application : mkvmerge v53.0.0 ('Fool's Gold') 64-bit
Writing library : libebml v1.4.1 + libmatroska v1.6.2

Video
ID : 1
Format : AVC
Format/Info : Advanced Video Codec
Format profile : High@L4.1
Format settings : CABAC / 4 Ref Frames
Format settings, CABAC : Yes
Format settings, Reference frames : 4 frames
Codec ID : V_MPEG4/ISO/AVC
Duration : 2 h 2 min
Bit rate mode : Variable
Bit rate : 28.0 Mb/s
Maximum bit rate : 36.0 Mb/s
Width : 1 920 pixels
Height : 1 080 pixels
Display aspect ratio : 16:9
Frame rate mode : Constant
Frame rate : 24.000 FPS
Standard : NTSC
Color space : YUV
Chroma subsampling : 4:2:0
Bit depth : 8 bits
Scan type : Progressive
Bits/(Pixel*Frame) : 0.563
Stream size : 24.0 GiB (86%)
Language : Spanish
Default : Yes
Forced : No
Color range : Limited
Color primaries : BT.709
Transfer characteristics : BT.709
Matrix coefficients : BT.709

Audio #1
ID : 2
Format : AC-3
Format/Info : Audio Coding 3
Commercial name : Dolby Digital
Codec ID : A_AC3
Duration : 2 h 2 min
Bit rate mode : Constant
Bit rate : 384 kb/s
Channel(s) : 6 channels
Channel layout : L R C LFE Ls Rs
Sampling rate : 48.0 kHz
Frame rate : 31.250 FPS (1536 SPF)
Compression mode : Lossy
Stream size : 337 MiB (1%)
Title : Russian Dub iTunes
Language : Russian
Service kind : Complete Main
Default : Yes
Forced : No

Audio #2
ID : 3
Format : AC-3
Format/Info : Audio Coding 3
Commercial name : Dolby Digital
Codec ID : A_AC3
Duration : 2 h 2 min
Bit rate mode : Constant
Bit rate : 384 kb/s
Channel(s) : 6 channels
Channel layout : L R C LFE Ls Rs
Sampling rate : 48.0 kHz
Frame rate : 31.250 FPS (1536 SPF)
Compression mode : Lossy
Stream size : 337 MiB (1%)
Title : Russian AVO Р. Янкелевич
Language : Russian
Service kind : Complete Main
Default : No
Forced : No

Audio #3
ID : 4
Format : DTS XLL
Format/Info : Digital Theater Systems
Commercial name : DTS-HD Master Audio
Codec ID : A_DTS
Duration : 2 h 2 min
Bit rate mode : Variable
Bit rate : 3 828 kb/s
Channel(s) : 6 channels
Channel layout : C L R Ls Rs LFE
Sampling rate : 48.0 kHz
Frame rate : 93.750 FPS (512 SPF)
Bit depth : 24 bits
Compression mode : Lossless
Stream size : 3.28 GiB (12%)
Title : Spanish Original
Language : Spanish
Default : No
Forced : No

Text #1
ID : 5
Format : UTF-8
Codec ID : S_TEXT/UTF8
Codec ID/Info : UTF-8 Plain Text
Duration : 1 h 29 min
Bit rate : 1 b/s
Count of elements : 15
Stream size : 1.26 KiB (0%)
Title : Russian forced
Language : Russian
Default : Yes
Forced : No

Text #2
ID : 6
Format : UTF-8
Codec ID : S_TEXT/UTF8
Codec ID/Info : UTF-8 Plain Text
Duration : 1 h 56 min
Bit rate : 96 b/s
Count of elements : 1376
Stream size : 82.2 KiB (0%)
Title : Russian full
Language : Russian
Default : No
Forced : No

Text #3
ID : 7
Format : UTF-8
Codec ID : S_TEXT/UTF8
Codec ID/Info : UTF-8 Plain Text
Duration : 2 h 1 min
Bit rate : 57 b/s
Count of elements : 1889
Stream size : 51.0 KiB (0%)
Title : English full
Language : English
Default : No
Forced : No

Menu
00:00:00.000 : :Глава 01
00:10:12.000 : :Глава 02
00:20:12.917 : :Глава 03
00:31:32.292 : :Глава 04
00:39:56.333 : :Глава 05
00:51:03.833 : :Глава 06
01:01:37.167 : :Глава 07
01:12:11.042 : :Глава 08
01:21:16.292 : :Глава 09
01:31:51.875 : :Глава 10
01:41:13.417 : :Глава 11
01:52:59.292 : :Глава 12

   Похожие торренты   Торрент   Размер 
В этой теме нет новых непрочитанных сообщений. Параллельные матери / Madres paralelas / Parallel Mothers (2021) BDRemux 1080p от селезень | iTunes

0 | 0

27.6 ГБ

В этой теме нет новых непрочитанных сообщений. Параллельные матери / Madres paralelas / Parallel Mothers (2021) BDRemux 1080p | A | Янкелевич

0 | 0

27.61 ГБ

В этой теме нет новых непрочитанных сообщений. Параллельные матери / Madres paralelas / Parallel Mothers (2021) BDRip 1080p | D, A | iTunes

15 | 0

16.11 ГБ

В этой теме нет новых непрочитанных сообщений. Параллельные матери / Madres paralelas / Parallel Mothers (2021) BDRip 1080p от Generalfilm | iTunes

10 | 0

8.63 ГБ

В этой теме нет новых непрочитанных сообщений. Параллельные матери / Madres paralelas / Parallel Mothers (2021) BDRip 1080p от селезень | iTunes

0 | 0

12 ГБ

В этой теме нет новых непрочитанных сообщений. Параллельные матери / Madres paralelas / Parallel Mothers (2021) BDRip от MegaPeer | iTunes

28 | 1

2.14 ГБ

В этой теме нет новых непрочитанных сообщений. Параллельные матери / Madres paralelas / Parallel Mothers (2021) BDRip от MegaPeer | iTunes

0 | 0

1.46 ГБ




Вы не можете начинать темы
Вы не можете отвечать на сообщения
Вы не можете редактировать свои сообщения
Вы не можете удалять свои сообщения
Вы не можете добавлять вложения

Перейти:  
Контактная информация: rstracker[пёсик]yandex.ru
 Вход
ppkBB3cker v.2 © 2008-2014 @ PPK
[ Time : 0.028s | 20 Queries | GZIP : Off ]

cron