img image001 image001 image001 image001 image001 image001 image001 image001 image001 image001 image001 image001 image001 image001 image001

Planets Sun Sun Sun
Статистика раздачи
Автор: PriZraK | Размер: 3.18 ГБ | Добавлен: 23 мар 2022
Раздают: 0    Качают: 0
Скачать торрент
Скачать торрент
Описание торрента

СообщениеДобавлено: 23 мар 2022 

Название: Город страха
Оригинальное название: La cité de la peur
Страна: Франция
Жанр: комедия, детектив, криминал
Год выпуска: 1994
Продолжительность: 01:40:21

Перевод: профессиональный двухголосый (Премьер Видеофильм), авторский (Роман Янкелевич)
Субтитры: французские

Режиссер: Ален Берберян
Актеры: Шанталь Лоби, Ален Шаба, Доминик Фарруджия, Жерар Дармон, Сэм Карманн, Patrick Lizana, Жан-Кристоф Буве, Эрик Пра, Марк Де Йонге, Валери Лемерсье

Описание: В Канне проходит очередной кинофестиваль. В восхитительном приморском местечке собрались кинематографисты из всех стран мира. Но в этом ужасном году каннская идиллия обагрится кровью киношников. В этот раз знаменитый курорт превратится в город страха. Здесь орудует маньяк, безжалостно истребляющий киномехаников. Садист появляется в кинотеатре в маске сварщика, а затем расправляется со своими жертвами при помощи... чего бы Вы думали? Серпа и молота! Убийца перевоплотился в ужасного героя дешёвого фильма ужасов «Красный - мёртв». Часы тикают, количество жертв растёт...


Качество: BDRip-AVC
Формат: MKV
Видео: MPEG-4 AVC, 1024x428, 3701 kbps, 24 fps
Аудио 1: AC3, 2 ch, 192 kbps, 48.0 kHz | русский (DVO Премьер Видеофильм)
Аудио 2: AC3, 2 ch, 192 kbps, 48.0 kHz | русский (Роман Янкелевич)
Аудио 3: AC3, 6 ch, 448 kbps, 48.0 kHz | французский
Субтитры: французские (SRT)
Главы/чаптеры
Код:
Общее
Уникальный идентификатор                 : 311840598015143312372537585840244830302 (0xEA9A5086F54CB61445FBDC6FCB62B05E)
Полное имя                               : D:VideoГород страха.1994.BDRip-AVC msltel.mkv
Формат                                   : Matroska
Версия формата                           : Version 4
Размер файла                             : 3,18 Гбайт
Продолжительность                        : 1 ч. 40 м.
Общий поток                              : 4 536 Кбит/сек
Название фильма                          : Город страха.1994.BDRip-AVC msltel
Дата кодирования                         : UTC 2022-03-14 02:19:28
Программа кодирования                    : mkvmerge v44.0.0 ('Domino') 64-bit
Библиотека кодирования                   : libebml v1.3.10 + libmatroska v1.5.2

Видео
Идентификатор                            : 1
Формат                                   : AVC
Формат/Информация                        : Advanced Video Codec
Профиль формата                          : High@L4.1
Настройки формата                        : CABAC / 16 Ref Frames
Параметр CABAC формата                   : Да
Параметр RefFrames формата               : 16 кадров
Идентификатор кодека                     : V_MPEG4/ISO/AVC
Продолжительность                        : 1 ч. 40 м.
Битрейт                                  : 3 701 Кбит/сек
Ширина                                   : 1 024 пикселя
Высота                                   : 428 пикселей
Соотношение сторон                       : 2,40:1
Режим частоты кадров                     : Постоянный
Частота кадров                           : 24,000 кадра/сек
Цветовое пространство                    : YUV
Субдискретизация насыщенности            : 4:2:0
Битовая глубина                          : 8 бит
Тип развёртки                            : Прогрессивная
Бит/(Пиксели*Кадры)                      : 0.352
Размер потока                            : 2,59 Гбайт (82%)
Библиотека кодирования                   : x264 core 164 r3085 0bb85e8
Настройки программы                      : cabac=1 / ref=16 / deblock=1:-3:-3 / analyse=0x3:0x113 / me=umh / subme=11 / psy=1 / psy_rd=1.00:0.00 / mixed_ref=1 / me_range=32 / chroma_me=1 / trellis=2 / 8x8dct=1 / cqm=0 / deadzone=21,11 / fast_pskip=0 / chroma_qp_offset=-2 / threads=12 / lookahead_threads=3 / sliced_threads=0 / nr=0 / decimate=0 / interlaced=0 / bluray_compat=0 / constrained_intra=0 / bframes=10 / b_pyramid=2 / b_adapt=2 / b_bias=0 / direct=1 / weightb=1 / open_gop=0 / weightp=2 / keyint=240 / keyint_min=24 / scenecut=40 / intra_refresh=0 / rc_lookahead=40 / rc=crf / mbtree=0 / crf=18.0 / qcomp=0.60 / qpmin=0 / qpmax=69 / qpstep=4 / vbv_maxrate=50000 / vbv_bufsize=62500 / crf_max=0.0 / nal_hrd=none / filler=0 / ip_ratio=1.40 / pb_ratio=1.30 / aq=3:1.00
Язык                                     : French
Default                                  : Да
Forced                                   : Нет

Аудио #1
Идентификатор                            : 2
Формат                                   : AC-3
Формат/Информация                        : Audio Coding 3
Коммерческое название                    : Dolby Digital
Идентификатор кодека                     : A_AC3
Продолжительность                        : 1 ч. 40 м.
Вид битрейта                             : Постоянный
Битрейт                                  : 192 Кбит/сек
Каналы                                   : 2 канала
Channel layout                           : L R
Частота                                  : 48,0 КГц
Частота кадров                           : 31,250 кадров/сек (1536 SPF)
Метод сжатия                             : С потерями
Размер потока                            : 138 Мбайт (4%)
Заголовок                                : DVO Премьер Видеофильм
Язык                                     : Russian
Service kind                             : Complete Main
Default                                  : Да
Forced                                   : Нет

Аудио #2
Идентификатор                            : 3
Формат                                   : AC-3
Формат/Информация                        : Audio Coding 3
Коммерческое название                    : Dolby Digital
Идентификатор кодека                     : A_AC3
Продолжительность                        : 1 ч. 40 м.
Вид битрейта                             : Постоянный
Битрейт                                  : 192 Кбит/сек
Каналы                                   : 2 канала
Channel layout                           : L R
Частота                                  : 48,0 КГц
Частота кадров                           : 31,250 кадров/сек (1536 SPF)
Метод сжатия                             : С потерями
Размер потока                            : 138 Мбайт (4%)
Заголовок                                : Роман Янкелевич
Язык                                     : Russian
Service kind                             : Complete Main
Default                                  : Нет
Forced                                   : Нет

Аудио #3
Идентификатор                            : 4
Формат                                   : AC-3
Формат/Информация                        : Audio Coding 3
Коммерческое название                    : Dolby Digital
Идентификатор кодека                     : A_AC3
Продолжительность                        : 1 ч. 40 м.
Вид битрейта                             : Постоянный
Битрейт                                  : 448 Кбит/сек
Каналы                                   : 6 каналов
Channel layout                           : L R C LFE Ls Rs
Частота                                  : 48,0 КГц
Частота кадров                           : 31,250 кадров/сек (1536 SPF)
Метод сжатия                             : С потерями
Размер потока                            : 322 Мбайт (10%)
Заголовок                                : оригинал
Язык                                     : French
Service kind                             : Complete Main
Default                                  : Нет
Forced                                   : Нет

Текст
Идентификатор                            : 5
Формат                                   : UTF-8
Идентификатор кодека                     : S_TEXT/UTF8
Идентификатор кодека/Информация          : UTF-8 Plain Text
Продолжительность                        : 1 ч. 39 м.
Битрейт                                  : 58 бит/сек
Count of elements                        : 1507
Размер потока                            : 42,3 Кбайт (0%)
Заголовок                                : французские
Язык                                     : French
Default                                  : Нет
Forced                                   : Нет

Меню
00:00:00.000                             : fr:Chapitre 01
00:08:00.333                             : fr:Chapitre 02
00:17:02.833                             : fr:Chapitre 03
00:24:29.250                             : fr:Chapitre 04
00:31:44.250                             : fr:Chapitre 05
00:41:04.250                             : fr:Chapitre 06
00:48:37.000                             : fr:Chapitre 07
00:56:42.833                             : fr:Chapitre 08
01:04:50.792                             : fr:Chapitre 09
01:11:45.833                             : fr:Chapitre 10
01:20:21.833                             : fr:Chapitre 11
01:27:53.958                             : fr:Chapitre 12




   Похожие торренты   Торрент   Размер 
В этой теме нет новых непрочитанных сообщений. Город страха / La cité de la peur (1994) BDRip 720p от msltel | P2, A

1 | 0

7.11 ГБ

В этой теме нет новых непрочитанных сообщений. Город страха / La cité de la peur (1994) BDRip от ExKinoRay | P2

3 | 1

1.46 ГБ

В этой теме нет новых непрочитанных сообщений. Город страха / La cité de la peur (1994) DVDRip | P2

0 | 1

1.37 ГБ

В этой теме нет новых непрочитанных сообщений. Город страха / La cité de la peur (1994) BDRemux 1080p | P2

0 | 0

23.83 ГБ

В этой теме нет новых непрочитанных сообщений. Улица страха. Часть 1: 1994 / Fear Street Part 1: 1994 (2021) WEB-DLRip-AVC от MediaBit | Пифагор

0 | 0

2.77 ГБ

В этой теме нет новых непрочитанных сообщений. Улица страха. Часть 1: 1994 / Fear Street Part 1: 1994 (2021) WEB-DLRip-AVC от ExKinoRay | Пифагор

0 | 0

740.29 МБ

В этой теме нет новых непрочитанных сообщений. Чёрная суббота, или Три лица страха / I tre volti della paura (1963) BDRip-AVC от msltel | P2

3 | 0

1.83 ГБ




Вы не можете начинать темы
Вы не можете отвечать на сообщения
Вы не можете редактировать свои сообщения
Вы не можете удалять свои сообщения
Вы не можете добавлять вложения

Перейти:  
Контактная информация: rstracker[пёсик]yandex.ru
 Вход
ppkBB3cker v.2 © 2008-2014 @ PPK
[ Time : 0.024s | 18 Queries | GZIP : Off ]

cron