img image001 image001 image001 image001 image001 image001 image001 image001 image001 image001 image001 image001 image001 image001 image001

Planets Sun Sun Sun
Статистика раздачи
Автор: PriZraK | Размер: 5.37 ГБ | Добавлен: 23 мар 2022
Раздают: 8    Качают: 0
Скачать торрент
Скачать торрент
Описание торрента

СообщениеДобавлено: 23 мар 2022 

Год выхода: 1998
Страна: США, Франция
Студия: Phoenix Pictures, Canal+ Droits Audiovisuels
Жанр: ужасы, триллер, детектив
Продолжительность: 01:39:39
Перевод: Профессиональный (многоголосый закадровый)

Режиссер: Джэми Блэнкс
В ролях: Джаред Лето, Алисия Уитт, Ребекка Гэйхарт, Майкл Розенбаум, Лоретта Дивайн, Джошуа Джексон, Тара Рейд, Джон Невилл, Джулиан Ричингс, Роберт Инглунд

Описание: Тихий студенческий городок потрясла серия кровавых убийств, совершенных с беспрецендентной жестокостью. Полиция теряется в догадках, ведь между этими жестокими преступлениями нет ничего общего. Однако студентке Натали удалось обнаружить страшную связь. На первый взгляд, она кажется невероятной: в каждом убийстве оживают городские легенды, пугающие истории из современного фольклора, передаваемые из уст в уста. Ни преподаватели, ни друзья не верят девушке… и становятся следующими жертвами таинственного убийцы.



Качество: BDRip-HEVC 1080p
Видео: HEVC/x.265, 1920x800, ~6686 Kbps
Аудио 1: AC3, 6 ch, 448 Kbps - Русский, MVO
Аудио 2: AC3, 6 ch, 448 Kbps - Английский
Субтитры: Русские, английские

General
Unique ID : 177824770725394611577678658147017051513 (0x85C7CE19AEB59E44A85CCD3723244D79)
Complete name : D:Urban Legend (1998) BDRip 1080p [HEVC] 10bit.mkv
Format : Matroska
Format version : Version 4
File size : 5.37 GiB
Duration : 1 h 39 min
Overall bit rate : 7 718 kb/s
Movie name : Городские легенды
Encoded date : UTC 2019-02-13 19:40:26
Writing application : mkvmerge v9.2.0 ('Photograph') 64bit
Writing library : libebml v1.3.3 + libmatroska v1.4.4 / Lavf57.71.100
Attachments : poster.jpg
ACTORS : Алисия Уитт, Джаред Лето,
COUNTRY : США
DATE : 1998
DIRECTOR : Джэми Блэнкс
ENCODING_INFO : MATROSKA,WEBM > MKV 1080p 10-bit / H264 > X265 CRF 18.0 Medium / AC3 > AC3 CBR 448kbps / DTS-HD MA > AC3 CBR 448kbps
GENRE : ужасы, детектив
HD_VIDEO : 1
Language : und
MEDIA_TYPE : 9
ORIGINAL_TITLE : Urban Legend

Video
ID : 1
Format : HEVC
Format/Info : High Efficiency Video Coding
Format profile : Main 10@L4.1@High
Codec ID : V_MPEGH/ISO/HEVC
Duration : 1 h 39 min
Bit rate : 6 820 kb/s
Width : 1 920 pixels
Height : 800 pixels
Display aspect ratio : 2.40:1
Frame rate mode : Constant
Frame rate : 23.976 (24000/1001) FPS
Color space : YUV
Chroma subsampling : 4:2:0
Bit depth : 10 bits
Bits/(Pixel*Frame) : 0.185
Stream size : 4.75 GiB (88%)
Title : Urban Legend 1998 1080p Blu-ray EUR DD5.1 AVC
Writing library : x265 2.9+9-f74003e88622:[Windows][GCC 8.2.0][64 bit] 10bit
Encoding settings : cpuid=1111039 / frame-threads=13 / numa-pools=12 / wpp / no-pmode / no-pme / no-psnr / no-ssim / log-level=3 / input-csp=1 / input-res=1920x800 / interlace=0 / total-frames=0 / level-idc=41 / high-tier=1 / uhd-bd=0 / ref=5 / allow-non-conformance / no-repeat-headers / annexb / no-aud / no-hrd / info / hash=0 / no-temporal-layers / no-open-gop / min-keyint=23 / keyint=240 / gop-lookahead=0 / bframes=8 / b-adapt=2 / b-pyramid / bframe-bias=0 / rc-lookahead=60 / lookahead-slices=4 / scenecut=40 / radl=0 / no-intra-refresh / ctu=64 / min-cu-size=8 / rect / no-amp / max-tu-size=32 / tu-inter-depth=3 / tu-intra-depth=3 / limit-tu=0 / rdoq-level=2 / dynamic-rd=0.00 / no-ssim-rd / signhide / no-tskip / nr-intra=0 / nr-inter=0 / no-constrained-intra / no-strong-intra-smoothing / max-merge=3 / limit-refs=3 / no-limit-modes / me=3 / subme=7 / merange=57 / temporal-mvp / weightp / weightb / no-analyze-src-pics / deblock=-3:-3 / no-sao / no-sao-non-deblock / rd=6 / no-early-skip / rskip / no-fast-intra / no-tskip-fast / no-cu-lossless / no-b-intra / no-splitrd-skip / rdpenalty=0 / psy-rd=2.00 / psy-rdoq=0.00 / no-rd-refine / no-lossless / cbqpoffs=0 / crqpoffs=0 / rc=crf / crf=18.0 / qcomp=0.70 / qpstep=4 / stats-write=0 / stats-read=0 / vbv-maxrate=50000 / vbv-bufsize=50000 / vbv-init=0.9 / crf-max=30.0 / crf-min=0.0 / ipratio=1.40 / pbratio=1.30 / aq-mode=2 / aq-strength=1.00 / cutree / zone-count=0 / no-strict-cbr / qg-size=32 / no-rc-grain / qpmax=69 / qpmin=0 / no-const-vbv / sar=1 / overscan=0 / videoformat=5 / range=0 / colorprim=1 / transfer=1 / colormatrix=1 / chromaloc=0 / display-window=0 / max-cll=0,0 / min-luma=0 / max-luma=1023 / log2-max-poc-lsb=8 / vui-timing-info / vui-hrd-info / slices=1 / no-opt-qp-pps / no-opt-ref-list-length-pps / no-multi-pass-opt-rps / scenecut-bias=0.05 / no-opt-cu-delta-qp / aq-motion / no-hdr / no-hdr-opt / no-dhdr10-opt / no-idr-recovery-sei / analysis-reuse-level=5 / scale-factor=0 / refine-intra=0 / refine-inter=0 / refine-mv=0 / no-limit-sao / ctu-info=0 / no-lowpass-dct / refine-mv-type=0 / copy-pic=1 / max-ausize-factor=1.0 / no-dynamic-refine / no-single-sei
Language : English
Default : Yes
Forced : No
Color range : Limited
Color primaries : BT.709
Transfer characteristics : BT.709
Matrix coefficients : BT.709

Audio #1
ID : 2
Format : AC-3
Format/Info : Audio Coding 3
Commercial name : Dolby Digital
Codec ID : A_AC3
Duration : 1 h 39 min
Bit rate mode : Constant
Bit rate : 448 kb/s
Channel(s) : 6 channels
Channel layout : L R C LFE Ls Rs
Sampling rate : 48.0 kHz
Frame rate : 31.250 FPS (1536 SPF)
Compression mode : Lossy
Stream size : 319 MiB (6%)
Title : MVO
Language : Russian
Service kind : Complete Main
Default : Yes
Forced : Yes

Audio #2
ID : 3
Format : AC-3
Format/Info : Audio Coding 3
Commercial name : Dolby Digital
Codec ID : A_AC3
Duration : 1 h 39 min
Bit rate mode : Constant
Bit rate : 448 kb/s
Channel(s) : 6 channels
Channel layout : L R C LFE Ls Rs
Sampling rate : 48.0 kHz
Frame rate : 31.250 FPS (1536 SPF)
Compression mode : Lossy
Stream size : 319 MiB (6%)
Language : English
Service kind : Complete Main
Default : No
Forced : No

Text #1
ID : 4
Format : UTF-8
Codec ID : S_TEXT/UTF8
Codec ID/Info : UTF-8 Plain Text
Duration : 1 h 35 min
Bit rate : 60 b/s
Count of elements : 639
Stream size : 42.1 KiB (0%)
Language : Russian
Default : Yes
Forced : No

Text #2
ID : 5
Format : UTF-8
Codec ID : S_TEXT/UTF8
Codec ID/Info : UTF-8 Plain Text
Duration : 1 h 34 min
Bit rate : 49 b/s
Count of elements : 915
Stream size : 34.0 KiB (0%)
Language : English
Default : No
Forced : No

Menu
00:00:00.000 : :Start
00:09:32.071 : :"Out of Gas?"
00:15:11.911 : :Parker's Story
00:20:07.790 : :"Bloody Mary."
00:25:26.108 : :Professor Wexler
00:35:10.734 : :A Little Experiment
00:37:52.020 : :Inflammatory Rubbish
00:45:32.271 : :Damon the Healer
00:50:17.264 : :The Hanging Tree
00:56:40.689 : :The Library
00:59:36.114 : :Computer Date
01:09:00.094 : :Tragic Suicide
01:15:18.723 : :25Th Anniversary
01:19:33.268 : :Wexler's Office
01:27:00.048 : :Criminal Record
01:31:04.668 : :"I Knew Michelle."


Релиз от: HANNIBAL

   Похожие торренты   Торрент   Размер 
В этой теме нет новых непрочитанных сообщений. Легенды ночных стражей / Legend of the Guardians: The Owls of Ga'Hoole (2010) BDRip-HEVC 1080p от RIPS CLUB | D, A

11 | 0

6.02 ГБ

В этой теме нет новых непрочитанных сообщений. Преследование / Following (1998) BDRip-HEVC 1080p от HEVC-CLUB | P2, A | Criterion Collection

0 | 0

7.05 ГБ

В этой теме нет новых непрочитанных сообщений. Кровавый четверг / Thursday (1998) BDRip-HEVC 1080p от HEVC CLUB | P, A

0 | 0

8.88 ГБ

В этой теме нет новых непрочитанных сообщений. Вампиры / Vampires (1998) BDRip-HEVC 1080p от HEVC-CLUB | D, P, A

4 | 0

7.7 ГБ

В этой теме нет новых непрочитанных сообщений. Падший / Fallen (1998) BDRip-HEVC 1080p от HEVC-CLUB | D, P2, A

0 | 0

9.01 ГБ

В этой теме нет новых непрочитанных сообщений. Зачарованные / Charmed [S01-08] (1998-2006) BDRip-HEVC 1080p от HEVC-CLUB | P

5 | 11

281.89 ГБ

В этой теме нет новых непрочитанных сообщений. Куда приводят мечты / What Dreams May Come (1998) BDRip-HEVC 1080p от HEVC-CLUB | D, A

0 | 0

6.52 ГБ




Вы не можете начинать темы
Вы не можете отвечать на сообщения
Вы не можете редактировать свои сообщения
Вы не можете удалять свои сообщения
Вы не можете добавлять вложения

Перейти:  
Контактная информация: rstracker[пёсик]yandex.ru
 Вход
ppkBB3cker v.2 © 2008-2014 @ PPK
[ Time : 0.023s | 19 Queries | GZIP : Off ]

cron