img image001 image001 image001 image001 image001 image001 image001 image001 image001 image001 image001 image001 image001 image001 image001

Planets Sun Sun Sun
Статистика раздачи
Автор: Снежана | Размер: 744.27 МБ | Добавлен: 22 июл 2013
Раздают: 52    Качают: 3
Скачать торрент
Скачать торрент
Описание торрента

СообщениеДобавлено: 22 июл 2013 

#77

Информация о фильме
Название: Загнанный
Оригинальное название: The Hunted
Год выхода: 2003
Жанр: боевик, триллер, драма, криминал
Режиссер: Уильям Фридкин / William Friedkin
В ролях: Томми Ли Джонс, Бенисио Дель Торо, Конни Нильсен, Лесли Стефансон, Джон Финн, Хосе Суньига, Рон Кэнада, Марк Пеллегрино, Дженна Бойд

О фильме:
Ушедший в отставку специалист по подготовке элитного спецназа Эл Ти Бонэм присоединяется к команде ФБР, идущей по следу жестокого убийцы. Неуловимый киллер, виртуозно владеющий боевым ножом, — один из самых одаренных учеников Эл Ти. Ему не нужен дом — в лесу он чувствует себя неуязвимым.
Ему не нужны деньги — все необходимое для жизни он может добыть сам. Ему не нужно оружие — в его руках палка или камень страшнее пулемета. Он идеальный воин, и только тому, кто обучил хладнокровного преступника мастерству убивать «быстро, аккуратно и эффективно», под силу остановить охотника на людей…



Страна: США
Продолжительность: 01:34:36
Перевод: Профессиональный (дублированный)
Файл
Кодек: XviD
Качество: HDRip [BDRip 1080p]
Видео: 656x368 (16:9), 23.976 fps, 963 Kbps, 0.166 Bits/(Pixel*Frame)
Звук: MP3, 48 KHz, 128 Kbps, 2 channels

Семпл

General
Complete name : D:Zagnannyj.2003.HDRip.XviD.744mb.avi
Format : AVI
Format/Info : Audio Video Interleave
File size : 744 MiB
Duration : 1h 34mn
Overall bit rate : 1 100 Kbps
Writing application : VirtualDubMod 1.5.10.2 (build 2540/release)
Writing library : VirtualDubMod build 2540/release

Video
ID : 0
Format : MPEG-4 Visual
Format profile : Advanced Simple@L5
Format settings, BVOP : 1
Format settings, QPel : No
Format settings, GMC : No warppoints
Format settings, Matrix : Custom
Codec ID : XVID
Codec ID/Hint : XviD
Duration : 1h 34mn
Bit rate : 963 Kbps
Width : 656 pixels
Height : 368 pixels
Display aspect ratio : 16:9
Frame rate : 23.976 fps
Color space : YUV
Chroma subsampling : 4:2:0
Bit depth : 8 bits
Scan type : Progressive
Compression mode : Lossy
Bits/(Pixel*Frame) : 0.166
Stream size : 651 MiB (88%)
Writing library : XviD 1.2.1 (UTC 2008-12-04)

Audio
ID : 1
Format : MPEG Audio
Format version : Version 1
Format profile : Layer 3
Mode : Joint stereo
Codec ID : 55
Codec ID/Hint : MP3
Duration : 1h 34mn
Bit rate mode : Constant
Bit rate : 128 Kbps
Channel(s) : 2 channels
Sampling rate : 48.0 KHz
Compression mode : Lossy
Stream size : 86.6 MiB (12%)
Alignment : Aligned on interleaves
Interleave, duration : 42 ms (1.00 video frame)
Interleave, preload duration : 504 ms












   Похожие торренты   Торрент   Размер 
В этой теме нет новых непрочитанных сообщений. Загнанный / The Hunted (2003) HDRip от Scarabey | D

276 | 7

744.65 МБ

В этой теме нет новых непрочитанных сообщений. Загнанный / The Hunted (2003) DVD5

7 | 5

4.19 ГБ

В этой теме нет новых непрочитанных сообщений. Загнанный / The Hunted (2003) BDRip | P

25 | 3

1.35 ГБ

В этой теме нет новых непрочитанных сообщений. Загнанный / The Hunted (2003) BDRip-AVC

176 | 7

2.18 ГБ

В этой теме нет новых непрочитанных сообщений. Загнанный / The Hunted (2003) DVDRip

16 | 5

1.37 ГБ

В этой теме нет новых непрочитанных сообщений. Загнанный / The Hunted (2003) BDRip от HELLYWOOD

33 | 16

1.75 ГБ

В этой теме нет новых непрочитанных сообщений. Загнанный / The Hunted (2003) BDRip от HQ-ViDEO

41 | 9

1.96 ГБ




Вы не можете начинать темы
Вы не можете отвечать на сообщения
Вы не можете редактировать свои сообщения
Вы не можете удалять свои сообщения
Вы не можете добавлять вложения

Перейти:  
Для Мосгорсуда, Роскомнадзора и рекламодателей: mosgorsud-torrent[собачка]yandex.ru
 Вход
ppkBB3cker v.2 © 2008-2014 @ PPK
[ Time : 0.042s | 18 Queries | GZIP : Off ]

cron