img image001 image001 image001 image001 image001 image001 image001 image001 image001 image001 image001 image001 image001 image001 image001
Planets Sun Sun Sun
Статистика раздачи
Автор: Снежана | Размер: 1.46 ГБ | Добавлен: 23 июл 2013
Раздают: 3    Качают: 2
Скачать торрент
Скачать торрент
Описание торрента

СообщениеДобавлено: 23 июл 2013 

#77

Страна: США
Жанр: драма, мелодрама
Год выпуска: 1984

Продолжительность: 01:44:50


Перевод: Профессиональный (многоголосый, закадровый)

Режиссер: Андрей Кончаловский

В ролях: Настасья Кински (Maria Bosic), Джон Сэвидж (Ivan Bibic), Роберт Митчум (Mr. Bibic), Кит Кэрредин (Clarence Butts), Анита Моррис (Mrs. Wynic), Бад Корт (Harvey), Карен Янг (Rosie), Трейси Нельсон (Joanie), Джон Гудмен (Frank), Дэнтон Стоун (Joe), Винсент Спано (Al Griselli), Lela Ivev (Anna)


Описание: Драма по мотивам рассказа Андрея Платонова «Река Потудань». Первый фильм Андрея Кончаловского, сделанный в Голливуде. Солдат возвращается с японской войны к своей любимой. В плену и на фронте он мечтал только о ней, но рядом с Марией он понимает, что утратил мужскую силу и не способен к любви.




MPAA: R - Лицам до 17 лет обязательно присутствие взрослого


Качество: DVDRip | Sample
Контейнер: AVI
Исходник: DVD5
Видео: XviD, 688x384 (16:9), 1785 kbps, 25 fps, 0,270 bpp
Аудио: AC3 / 2.0 / 48 kHz / 192 kbps / 16 bit



General
Complete name : E:ВидеоMaria's Lovers_DVDRip_1984_MVO_ot_Youtracker_by_Дядя_Лёша.avi
Format : AVI
Format/Info : Audio Video Interleave
File size : 1.46 GiB
Duration : 1h 44mn
Overall bit rate : 1 987 Kbps
Writing application : VirtualDubMod 1.5.10.3 | www.virtualdub-fr.org || (build 2550/release)
Writing library : VirtualDubMod build 2550/release

Video
ID : 0
Format : MPEG-4 Visual
Format profile : Advanced Simple@L5
Format settings, BVOP : 2
Format settings, QPel : No
Format settings, GMC : No warppoints
Format settings, Matrix : Custom
Muxing mode : Packed bitstream
Codec ID : XVID
Codec ID/Hint : XviD
Duration : 1h 44mn
Bit rate : 1 785 Kbps
Width : 688 pixels
Height : 384 pixels
Display aspect ratio : 16:9
Frame rate : 25.000 fps
Color space : YUV
Chroma subsampling : 4:2:0
Bit depth : 8 bits
Scan type : Progressive
Compression mode : Lossy
Bits/(Pixel*Frame) : 0.270
Stream size : 1.31 GiB (90%)
Writing library : XviD 65

Audio
ID : 1
Format : AC-3
Format/Info : Audio Coding 3
Mode extension : CM (complete main)
Codec ID : 2000
Duration : 1h 44mn
Bit rate mode : Constant
Bit rate : 192 Kbps
Channel(s) : 2 channels
Channel positions : Front: L R
Sampling rate : 48.0 KHz
Bit depth : 16 bits
Compression mode : Lossy
Stream size : 144 MiB (10%)
Alignment : Split accross interleaves
Interleave, duration : 40 ms (1.00 video frame)
Interleave, preload duration : 500 ms




   Похожие торренты   Торрент   Размер 
В этой теме нет новых непрочитанных сообщений. Возлюбленные Марии / Maria's Lovers (1984) DVDRip | P

1 | 1

745.67 МБ

В этой теме нет новых непрочитанных сообщений. Возлюбленные Марии / Maria's Lovers (1984) DVDRip от Киномагия l P

9 | 1

1.45 ГБ

В этой теме нет новых непрочитанных сообщений. Возлюбленные Марии / Maria's Lovers (1984) DVDRip от SergV l P

7 | 5

1.47 ГБ

В этой теме нет новых непрочитанных сообщений. Возлюбленные Марии / Maria’s Lovers (1984) DVDRip-AVC от KORSAR | P

4 | 0

2 ГБ

В этой теме нет новых непрочитанных сообщений. Замужество Марии Браун / Die Ehe der Maria Braun (1979) DVDRip

128 | 8

1.46 ГБ

В этой теме нет новых непрочитанных сообщений. Дьявольские Возлюбленные / Diabolik Lovers [OVA] [1 из 1] (2014) DVDRip от Мифоград | L1

30 | 2

154.45 МБ

В этой теме нет новых непрочитанных сообщений. Замужество Марии Браун / Die Ehe der Maria Braun (1979) BDRemux 1080p | P2

19 | 20

28.15 ГБ




Вы не можете начинать темы
Вы не можете отвечать на сообщения
Вы не можете редактировать свои сообщения
Вы не можете удалять свои сообщения
Вы не можете добавлять вложения

Перейти:  
Для Мосгорсуда, Роскомнадзора и рекламодателей: mosgorsud-torrent[собачка]yandex.ru
 Вход
ppkBB3cker v.2 © 2008-2014 @ PPK
[ Time : 0.073s | 18 Queries | GZIP : Off ]

cron