img image001 image001 image001 image001 image001 image001 image001 image001 image001 image001 image001 image001 image001 image001 image001 image001

Planets Sun Sun Sun
Статистика раздачи
Автор: Снежана | Размер: 13.1 ГБ | Добавлен: 23 июл 2013
Раздают: 76    Качают: 52
Скачать торрент
Скачать торрент
Описание торрента

СообщениеДобавлено: 23 июл 2013 

#77

Трансформеры: Трилогия / Transformers: Trilogy (2007-2011) BDRip 720p (DVD5) от NoLimits-Team


Информация о фильме
Название: Трансформеры: Трилогия
Оригинальное название: Transformers: Trilogy
Год выхода: 2007/2009/2011
Жанр: фантастика, боевик, триллер, приключения
Режиссер: Майкл Бэй
Перевод: Дублированный
Продолжительность: 02:23:27 | 02:29:53 | 02:34:23


Информация о фильме
Название: Трансформеры
Оригинальное название: Transformers
Год выхода: 2007
Жанр: фантастика, боевик
Режиссер: Майкл Бэй
В ролях: Шайа ЛаБаф, Меган Фокс, Джош Дюамель, Тайриз Гибсон, Джон Туртурро, Рэйчел Тейлор, Энтони Андерсон, Джон Войт, Кевин Данн, Джули Уайт

Сюжет фильма: В течение многих столетий две расы роботов-инопланетян — Автоботы и Десептиконы — вели войну, ставкой в которой была судьба Bселенной. И вот война докатилась до Земли. В то время, когда силы зла ищут ключ к верховной власти, наш последний шанс на спасение находится в руках юного землянина. Единственное, что стоит между несущими зло Десептиконами и высшей властью — это ключ, находящийся в руках простого парнишки.Обычный подросток, Сэм Уитвикки озабочен повседневными хлопотами — школа, друзья, машины, девочки. Не ведая о том, что он является последним шансом человечества на спасение, Сэм вместе со своей подругой Микаэлой оказывается вовлеченным в противостояние Автоботов и Десептиконов. Только тогда Сэм понимает истинное значение семейного девиза Уитвикки — «без жертв нет победы!»

«Наш мир. Их война»


Выпущено: США
Продолжительность: 02:23:27
Перевод: Дублированный
Субтитры: Русские (полные, форсирующие)

Файл
Качество: BDRip 720p (исходник Blu-ray Disc)
Видео: 1280x534, 3913 Кбит/сек, 23.976 кадр/сек, AVC, x264, 2.40:1, 0.239 Бит/(Пиксели*Кадры), 2-pas
Аудио: AC-3, 448 Кбит/сек, 6 канала(ов), 48,0 КГц
Чаптеры: Есть
Размер: 4.37 Гб





Релиз Группа | Автор Рипа:
Бюджет Фильма: $150 000 000
Кассовые сборы: $709 709 780 + DVD в США: $292 165 658


Format : Matroska
Format version : Version 4 / Version 2
File size : 4.37 GiB
Duration : 2h 23mn
Overall bit rate : 4 358 Kbps
Movie name : Трансформеры.(2007).BDRip.720p.(DVD5).[NoLimits-Team]
Encoded date : UTC 2013-02-14 23:02:09
Writing application : mkvmerge v6.0.0 ('Coming Up For Air') built on Jan 20 2013 09:52:00
Writing library : libebml v1.3.0 + libmatroska v1.4.0

Video
ID : 1
Format : AVC
Format/Info : Advanced Video Codec
Format profile : High@L4.1
Format settings, CABAC : Yes
Format settings, ReFrames : 12 frames
Codec ID : V_MPEG4/ISO/AVC
Bit rate : 3 913 Kbps
Width : 1 280 pixels
Height : 534 pixels
Display aspect ratio : 2.40:1
Frame rate mode : Variable
Original frame rate : 23.976 fps
Color space : YUV
Chroma subsampling : 4:2:0
Bit depth : 8 bits
Scan type : Progressive
Bits/(Pixel*Frame) : 0.239
Title : Трансформеры.(2007).BDRip.720p.(DVD5).[NoLimits-Team]
Writing library : x264 core 129 r2245 bc13772
Encoding settings : cabac=1 / ref=12 / deblock=1:0:0 / analyse=0x3:0x113 / me=umh / subme=11 / psy=1 / psy_rd=1.00:0.10 / mixed_ref=1 / me_range=64 / chroma_me=1 / trellis=2 / 8x8dct=1 / cqm=0 / deadzone=21,11 / fast_pskip=0 / chroma_qp_offset=-3 / threads=6 / lookahead_threads=1 / sliced_threads=0 / nr=0 / decimate=0 / interlaced=0 / bluray_compat=0 / constrained_intra=0 / bframes=8 / b_pyramid=2 / b_adapt=2 / b_bias=0 / direct=3 / weightb=1 / open_gop=0 / weightp=2 / keyint=240 / keyint_min=24 / scenecut=40 / intra_refresh=0 / rc_lookahead=60 / rc=2pass / mbtree=1 / bitrate=3913 / ratetol=2.0 / qcomp=0.60 / qpmin=0 / qpmax=51 / qpstep=4 / cplxblur=20.0 / qblur=0.5 / ip_ratio=1.40 / aq=1:1.00
Language : English
Default : Yes
Forced : No

Audio
ID : 2
Format : AC-3
Format/Info : Audio Coding 3
Mode extension : CM (complete main)
Format settings, Endianness : Big
Codec ID : A_AC3
Duration : 2h 23mn
Bit rate mode : Constant
Bit rate : 448 Kbps
Channel(s) : 6 channels
Channel positions : Front: L C R, Side: L R, LFE
Sampling rate : 48.0 KHz
Bit depth : 16 bits
Compression mode : Lossy
Stream size : 460 MiB (10%)
Title : Дубляж
Language : Russian
Default : Yes
Forced : No

Text #1
ID : 3
Format : UTF-8
Codec ID : S_TEXT/UTF8
Codec ID/Info : UTF-8 Plain Text
Title : Русские (форсирующие)
Language : Russian
Default : Yes
Forced : Yes

Text #2
ID : 4
Format : UTF-8
Codec ID : S_TEXT/UTF8
Codec ID/Info : UTF-8 Plain Text
Title : Русские (полные)
Language : Russian
Default : No
Forced : No

Menu
00:00:00.000 : en:00:00:00.000
00:02:04.708 : en:00:02:04.708
00:08:54.534 : en:00:08:54.534
00:15:33.641 : en:00:15:33.641
00:22:21.382 : en:00:22:21.382
00:27:42.661 : en:00:27:42.661
00:33:25.378 : en:00:33:25.378
00:38:58.002 : en:00:38:58.002
00:45:13.920 : en:00:45:13.920
00:51:46.437 : en:00:51:46.437
00:58:44.688 : en:00:58:44.688
01:06:48.421 : en:01:06:48.421
01:11:53.559 : en:01:11:53.559
01:16:56.445 : en:01:16:56.445
01:23:37.346 : en:01:23:37.346
01:29:04.172 : en:01:29:04.172
01:36:28.741 : en:01:36:28.741
01:43:58.107 : en:01:43:58.107
01:49:45.746 : en:01:49:45.746
01:56:54.007 : en:01:56:54.007
02:03:09.882 : en:02:03:09.882
02:10:43.919 : en:02:10:43.919
02:15:02.303 : en:02:15:02.303




Информация о фильме
Название: Трансформеры: Месть падших
Оригинальное название: Transformers: Revenge of the Fallen
Год выхода: 2007
Жанр: Фантастика, боевик, триллер, приключения
Режиссер: Майкл Бэй
В ролях: Шайа ЛаБаф, Меган Фокс, Джош Дюамель, Тайриз Гибсон, Джон Туртурро, Рамон Родригез, Кевин Данн, Джули Уайт, Изабель Лукас, Джон Бенжамин Хикки

Сюжет фильма: Прошло два года с тех пор, как юный Сэм Уитвикки спас Вселенную, предотвратив глобальную битву между враждующими воинственными расами инопланетных роботов. Несмотря на свои героические подвиги, Сэм остается обычным подростком с обычными проблемами — поступлением в колледж и родителями. Разумеется, отъезд будет тяжело воспринят лучшим другом, роботом — телохранителем Бамблби. Сэм изо всех сил пытается забыть о конфликте в Мишн Сити и вернуться к нормальной жизни. Однако битва между Автоботами и Десептиконами, несмотря на гриф полной секретности, многое изменила…

«Месть неминуема»


Выпущено: США
Продолжительность: 02:29:53
Перевод: Дублированный
Субтитры: Русские (полные, форсирующие)

Файл
Качество: BDRip 720p (исходник Blu-ray CEE)
Видео: 1280x534, 3726 Кбит/сек, 23.976 кадр/сек, AVC, x264, 2.40:1, 0.227 Бит/(Пиксели*Кадры), 2-pas
Аудио: AC-3, 448 Кбит/сек, 6 канала(ов), 48,0 КГц
Чаптеры: Есть
Размер: 4.37 Гб





Релиз Группа | Автор Рипа:
Бюджет Фильма: $200 000 000
Кассовые сборы: $836 297 228 + DVD в США: $220 810 999


Format : Matroska
Format version : Version 4 / Version 2
File size : 4.37 GiB
Duration : 2h 29mn
Overall bit rate : 4 169 Kbps
Movie name : Трансформеры: Месть падших.(2009).BDRip.720p.(DVD5).[NoLimits-Team]
Encoded date : UTC 2013-02-14 23:25:21
Writing application : mkvmerge v6.0.0 ('Coming Up For Air') built on Jan 20 2013 09:52:00
Writing library : libebml v1.3.0 + libmatroska v1.4.0

Video
ID : 1
Format : AVC
Format/Info : Advanced Video Codec
Format profile : High@L4.1
Format settings, CABAC : Yes
Format settings, ReFrames : 12 frames
Codec ID : V_MPEG4/ISO/AVC
Duration : 2h 29mn
Bit rate : 3 726 Kbps
Width : 1 280 pixels
Height : 534 pixels
Display aspect ratio : 2.40:1
Frame rate mode : Constant
Frame rate : 23.976 fps
Color space : YUV
Chroma subsampling : 4:2:0
Bit depth : 8 bits
Scan type : Progressive
Bits/(Pixel*Frame) : 0.227
Stream size : 3.81 GiB (87%)
Title : Трансформеры: Месть падших.(2009).BDRip.720p.(DVD5).[NoLimits-Team]
Writing library : x264 core 129 r2245 bc13772
Encoding settings : cabac=1 / ref=12 / deblock=1:0:0 / analyse=0x3:0x113 / me=umh / subme=11 / psy=1 / psy_rd=1.00:0.10 / mixed_ref=1 / me_range=64 / chroma_me=1 / trellis=2 / 8x8dct=1 / cqm=0 / deadzone=21,11 / fast_pskip=0 / chroma_qp_offset=-3 / threads=6 / lookahead_threads=1 / sliced_threads=0 / nr=0 / decimate=0 / interlaced=0 / bluray_compat=0 / constrained_intra=0 / bframes=8 / b_pyramid=2 / b_adapt=2 / b_bias=0 / direct=3 / weightb=1 / open_gop=0 / weightp=2 / keyint=240 / keyint_min=23 / scenecut=40 / intra_refresh=0 / rc_lookahead=60 / rc=2pass / mbtree=1 / bitrate=3726 / ratetol=2.0 / qcomp=0.60 / qpmin=0 / qpmax=51 / qpstep=4 / cplxblur=20.0 / qblur=0.5 / ip_ratio=1.40 / aq=1:1.00
Language : English
Default : Yes
Forced : No

Audio
ID : 2
Format : AC-3
Format/Info : Audio Coding 3
Mode extension : CM (complete main)
Format settings, Endianness : Big
Codec ID : A_AC3
Duration : 2h 29mn
Bit rate mode : Constant
Bit rate : 448 Kbps
Channel(s) : 6 channels
Channel positions : Front: L C R, Side: L R, LFE
Sampling rate : 48.0 KHz
Bit depth : 16 bits
Compression mode : Lossy
Stream size : 480 MiB (11%)
Title : Дубляж
Language : Russian
Default : Yes
Forced : No

Text #1
ID : 3
Format : UTF-8
Codec ID : S_TEXT/UTF8
Codec ID/Info : UTF-8 Plain Text
Title : Русские (форсирующие)
Language : Russian
Default : Yes
Forced : Yes

Text #2
ID : 4
Format : UTF-8
Codec ID : S_TEXT/UTF8
Codec ID/Info : UTF-8 Plain Text
Title : Русские (полные)
Language : Russian
Default : No
Forced : No

Menu
00:00:00.000 : en:00:00:00.000
00:08:49.279 : en:00:08:49.279
00:14:52.642 : en:00:14:52.642
00:18:18.014 : en:00:18:18.014
00:25:07.631 : en:00:25:07.631
00:33:00.520 : en:00:33:00.520
00:37:07.767 : en:00:37:07.767
00:43:33.653 : en:00:43:33.653
00:54:56.543 : en:00:54:56.543
01:03:23.883 : en:01:03:23.883
01:12:26.008 : en:01:12:26.008
01:20:12.182 : en:01:20:12.182
01:26:35.065 : en:01:26:35.065
01:35:41.152 : en:01:35:41.152
01:44:54.079 : en:01:44:54.079
01:50:34.711 : en:01:50:34.711
01:59:01.801 : en:01:59:01.801
02:07:13.709 : en:02:07:13.709
02:15:05.306 : en:02:15:05.306
02:22:14.818 : en:02:22:14.818




Информация о фильме
Название: Трансформеры 3: Тёмная сторона Луны
Оригинальное название: Transformers: Dark of the Moon
Год выхода: 2011
Жанр: фантастика, боевик, приключения
Режиссер: Майкл Бэй
В ролях: Шайа ЛаБаф, Роузи Хантингтон-Уайтли, Джош Дюамель, Джон Туртурро, Патрик Демпси, Фрэнсис МакДорманд, Кен Жонг, Алан Тьюдик, Джон Малкович, Тайриз Гибсон

Сюжет фильма: Для наших героев наступили печальные будни: Сэм потерял Микаэлу, правительство выпускает законодательный акт о выселении Автоботов с Земли, а пока Мегатрон скрывается после позорного поражения Фоллена, десептикон Шокуэйв, правитель Кибертрона, готовится нанести визит нашей планете с совсем недобрыми намерениями. Действие заключительной части трилогии на этот раз охватит не только Землю, но и Луну, темная сторона которой хранит не менее темные тайны.

«Последний шанс цивилизации»


Выпущено: США
Продолжительность: 02:34:23
Перевод: Дублированный
Субтитры: Русские (полные, форсирующие)

Файл
Качество: BDRip 720p (исходник Blu-ray CEE)
Видео: 1280x534, 3604 Кбит/сек, 23.976 кадр/сек, AVC, x264, 2.40:1, 0.220 Бит/(Пиксели*Кадры), 2-pas
Аудио: AC-3, 448 Кбит/сек, 6 канала(ов), 48,0 КГц
Чаптеры: Есть
Размер: 4.37 Гб





Релиз Группа | Автор Рипа:
Бюджет Фильма: $195 000 000
Кассовые сборы: $1 123 746 996 + DVD в США: $46 731 930


Format : Matroska
Format version : Version 4 / Version 2
File size : 4.37 GiB
Duration : 2h 34mn
Overall bit rate : 4 051 Kbps
Movie name : Трансформеры 3: Тёмная сторона Луны.(2011).BDRip.720p.(DVD5).[NoLimits-Team]
Encoded date : UTC 2013-02-15 00:11:28
Writing application : mkvmerge v6.0.0 ('Coming Up For Air') built on Jan 20 2013 09:52:00
Writing library : libebml v1.3.0 + libmatroska v1.4.0

Video
ID : 1
Format : AVC
Format/Info : Advanced Video Codec
Format profile : High@L4.1
Format settings, CABAC : Yes
Format settings, ReFrames : 12 frames
Codec ID : V_MPEG4/ISO/AVC
Bit rate : 3 604 Kbps
Width : 1 280 pixels
Height : 534 pixels
Display aspect ratio : 2.40:1
Frame rate mode : Variable
Original frame rate : 23.976 fps
Color space : YUV
Chroma subsampling : 4:2:0
Bit depth : 8 bits
Scan type : Progressive
Bits/(Pixel*Frame) : 0.220
Title : Трансформеры 3: Тёмная сторона Луны.(2011).BDRip.720p.(DVD5).[NoLimits-Team]
Writing library : x264 core 129 r2245 bc13772
Encoding settings : cabac=1 / ref=12 / deblock=1:0:0 / analyse=0x3:0x113 / me=umh / subme=11 / psy=1 / psy_rd=1.00:0.10 / mixed_ref=1 / me_range=64 / chroma_me=1 / trellis=2 / 8x8dct=1 / cqm=0 / deadzone=21,11 / fast_pskip=0 / chroma_qp_offset=-3 / threads=6 / lookahead_threads=1 / sliced_threads=0 / nr=0 / decimate=0 / interlaced=0 / bluray_compat=0 / constrained_intra=0 / bframes=8 / b_pyramid=2 / b_adapt=2 / b_bias=0 / direct=3 / weightb=1 / open_gop=0 / weightp=2 / keyint=240 / keyint_min=23 / scenecut=40 / intra_refresh=0 / rc_lookahead=60 / rc=2pass / mbtree=1 / bitrate=3604 / ratetol=1.0 / qcomp=0.60 / qpmin=0 / qpmax=51 / qpstep=4 / cplxblur=20.0 / qblur=0.5 / ip_ratio=1.40 / aq=1:1.00
Language : English
Default : Yes
Forced : No

Audio
ID : 2
Format : AC-3
Format/Info : Audio Coding 3
Mode extension : CM (complete main)
Format settings, Endianness : Big
Codec ID : A_AC3
Duration : 2h 34mn
Bit rate mode : Constant
Bit rate : 448 Kbps
Channel(s) : 6 channels
Channel positions : Front: L C R, Side: L R, LFE
Sampling rate : 48.0 KHz
Bit depth : 16 bits
Compression mode : Lossy
Stream size : 495 MiB (11%)
Title : Дубляж
Language : Russian
Default : Yes
Forced : No

Text #1
ID : 3
Format : UTF-8
Codec ID : S_TEXT/UTF8
Codec ID/Info : UTF-8 Plain Text
Title : Русские (форсирующие)
Language : Russian
Default : Yes
Forced : Yes

Text #2
ID : 4
Format : UTF-8
Codec ID : S_TEXT/UTF8
Codec ID/Info : UTF-8 Plain Text
Title : Русские (полные)
Language : Russian
Default : No
Forced : No

Menu
00:00:00.000 : en:00:00:00.000
00:08:52.574 : en:00:08:52.574
00:14:26.616 : en:00:14:26.616
00:20:20.928 : en:00:20:20.928
00:28:48.143 : en:00:28:48.143
00:36:18.635 : en:00:36:18.635
00:45:18.549 : en:00:45:18.549
00:51:53.027 : en:00:51:53.027
00:56:34.224 : en:00:56:34.224
01:04:13.308 : en:01:04:13.308
01:12:56.706 : en:01:12:56.706
01:19:09.078 : en:01:19:09.078
01:23:41.391 : en:01:23:41.391
01:28:44.819 : en:01:28:44.819
01:35:13.082 : en:01:35:13.082
01:42:44.158 : en:01:42:44.158
01:49:12.337 : en:01:49:12.337
01:56:42.913 : en:01:56:42.913
02:04:59.117 : en:02:04:59.117
02:11:29.590 : en:02:11:29.590
02:19:10.884 : en:02:19:10.884
02:25:37.520 : en:02:25:37.520




   Похожие торренты   Торрент   Размер 
В этой теме нет новых непрочитанных сообщений. Трансформеры: Трилогия / Transformers: Trilogy (2007-2011) BDRip 720p

3 | 5

22.82 ГБ

В этой теме нет новых непрочитанных сообщений. Трансформеры - Трилогия / Transformers - Trilogy (2007-2011) BDRip от HELLYWOOD

12 | 3

15.1 ГБ

В этой теме нет новых непрочитанных сообщений. Трансформеры: Трилогия / Transformers: Trilogy (2007-2011) BDRip 1080p

145 | 82

34.72 ГБ

В этой теме нет новых непрочитанных сообщений. Трансформеры: Трилогия / Transformers Trilogy (2007-2011) BDRip 1080p

113 | 37

23.3 ГБ

В этой теме нет новых непрочитанных сообщений. Трансформеры: Трилогия / Transformers: Trilogy (2007, 2009, 2011) BDRip-AVC от PowerTracker

970 | 39

6.54 ГБ

В этой теме нет новых непрочитанных сообщений. Трансформеры: Трилогия / Transformers: Trilogy [6CD] (2007/2009/2011) Blu-ray CEE 1080p

3 | 77

233.22 ГБ

В этой теме нет новых непрочитанных сообщений. Трансформеры: Трилогия / Transformers: Trilogy (2007, 2009, 2011) BDRemux

9 | 189

164 ГБ




Вы не можете начинать темы
Вы не можете отвечать на сообщения
Вы не можете редактировать свои сообщения
Вы не можете удалять свои сообщения
Вы не можете добавлять вложения

Перейти:  
 Вход
ppkBB3cker v.2 © 2008-2014 @ PPK
[ Time : 0.386s | 18 Queries | GZIP : Off ]

cron