img image001 image001 image001 image001 image001 image001 image001 image001 image001 image001 image001 image001 image001 image001 image001

Planets Sun Sun Sun
Статистика раздачи
Автор: Снежана | Размер: 2.92 ГБ | Добавлен: 23 июл 2013
Раздают: 16    Качают: 4
Скачать торрент
Скачать торрент
Описание торрента

СообщениеДобавлено: 23 июл 2013 

#77
Лихорадка / Cabin Fever

«Terror... In the flesh.»
Год выпуска: 2002
Производство: США
Жанр: ужасы
Продолжительность: 01:28:19

Перевод: Профессиональный (полное дублирование) [Лицензия]
Оригинальный аудиопоток: английский
Субтитры: отсутствуют

Режиссер: Элай Рот / Eli Roth

В ролях: Райдер Стронг, Джордан Лэдд, Джеймс ДеБелло, Серина Винсент, Джои Керн, Эри Вервин, Роберт Харрис, Хэл Кортни, Мэттью Хелмс, Ричард Бун

Описание: После тяжелого учебного года пятеро студентов решают провести пару дней в маленькой лесной хижине. Несмотря на странное поведение местных жителей, они намерены как следует расслабиться, но внезапно их планы нарушает встреча с бродягой с ужасной, будто бы гниющей кожей. Ребятам удается отделаться от несчастного, но они не знают, что он успел отравить местный водоем, и неизвестная инфекция уже распространяется по округе. Кто из них станет первой жертвой страшного вируса, пожирающего человеческую плоть?

Качество: HDRip-AVC
Формат: MKV
Видео: 1008x416, 25fps, 1728 Kbps, 0.165 bit/pixel
Аудио 1: AC3, 48.0 KHz, 2 ch, 448 Kbps - Rus
Аудио 2: AC3, 48.0 KHz, 2 ch, 192 Kbps - Eng

Format : Matroska
Format version : Version 2
File size : 1.46 GiB
Duration : 1h 28mn
Overall bit rate : 2 369 Kbps
Movie name : Cabin Fever 2002 - The Jolly Roger by Pirat.Ca [zyyx]
Encoded date : UTC 2012-05-20 12:37:11
Writing application : mkvmerge v4.9.1 ('Ich will') сборка от Jul 11 2011 23:53:15
Writing library : libebml v1.2.1 + libmatroska v1.1.1

Video
ID : 1
Format : AVC
Format/Info : Advanced Video Codec
Format profile : High@L4.1
Format settings, CABAC : Yes
Format settings, ReFrames : 11 frames
Codec ID : V_MPEG4/ISO/AVC
Duration : 1h 28mn
Bit rate : 1 728 Kbps
Width : 1 008 pixels
Height : 416 pixels
Display aspect ratio : 2.40:1
Frame rate : 25.000 fps
Color space : YUV
Chroma subsampling : 4:2:0
Bit depth : 8 bits
Scan type : Progressive
Bits/(Pixel*Frame) : 0.165
Stream size : 1.04 GiB (71%)
Writing library : x264 core 116 r2044 392e762
Encoding settings : cabac=1 / ref=11 / deblock=1:-2:-1 / analyse=0x3:0x133 / me=umh / subme=10 / psy=1 / psy_rd=1.00:0.20 / mixed_ref=1 / me_range=32 / chroma_me=1 / trellis=2 / 8x8dct=1 / cqm=0 / deadzone=21,11 / fast_pskip=1 / chroma_qp_offset=-3 / threads=6 / sliced_threads=0 / nr=0 / decimate=1 / interlaced=0 / bluray_compat=0 / constrained_intra=0 / bframes=6 / b_pyramid=2 / b_adapt=2 / b_bias=0 / direct=3 / weightb=1 / open_gop=0 / weightp=2 / keyint=250 / keyint_min=25 / scenecut=40 / intra_refresh=0 / rc_lookahead=60 / rc=2pass / mbtree=1 / bitrate=1728 / ratetol=1.0 / qcomp=0.60 / qpmin=0 / qpmax=69 / qpstep=4 / cplxblur=20.0 / qblur=0.5 / ip_ratio=1.40 / aq=1:1.00
Default : Yes
Forced : No

Audio #1
ID : 2
Format : AC-3
Format/Info : Audio Coding 3
Mode extension : CM (complete main)
Codec ID : A_AC3
Duration : 1h 28mn
Bit rate mode : Constant
Bit rate : 448 Kbps
Channel(s) : 6 channels
Channel positions : Front: L C R, Side: L R, LFE
Sampling rate : 48.0 KHz
Bit depth : 16 bits
Compression mode : Lossy
Stream size : 283 MiB (19%)
Default : Yes
Forced : No

Audio #2
ID : 3
Format : AC-3
Format/Info : Audio Coding 3
Mode extension : CM (complete main)
Codec ID : A_AC3
Duration : 1h 28mn
Bit rate mode : Constant
Bit rate : 192 Kbps
Channel(s) : 2 channels
Channel positions : Front: L R
Sampling rate : 48.0 KHz
Bit depth : 16 bits
Compression mode : Lossy
Stream size : 121 MiB (8%)
Default : No
Forced : No





#77

Последние каникулы 2 / Cabin Fever 2: Spring Fever
«This time it's spreading»

Год выпуска: 2009
Производство: США
Жанр: ужасы, триллер
Продолжительность: 01:25:59

Перевод: Профессиональный (многоголосый, закадровый) [Лицензия]
Оригинальный аудиопоток: английский
Субтитры: отсутствуют

Режиссер: Ти Уэст / Ti West

В ролях: Ной Сеган, Райдер Стронг, Алекси Вассер, Расти Келли, Марк Сентер, Александр Айзиа Томас, Джузеппе Эндрюс, Майкл Боуэн, Риган Дил, Марк Борхардт

Описание: Лихорадка вырывается из лесной глуши и попадает в маленький городок Спрингфилд в день выпускного бала. Подростки готовятся проститься со школой, детством и невинностью, но им предстоит лишиться большего, ведь в город прибывает команда зачистки.

Качество: HDRip-AVC
Формат: MKV
Видео: 1024x432, 24fps, 1793 Kbps, 0.169 bit/pixel
Аудио 1: AC3, 48.0 KHz, 2 ch, 448 Kbps - Rus
Аудио 2: AC3, 48.0 KHz, 2 ch, 192 Kbps - Eng

Format : Matroska
Format version : Version 2
File size : 1.46 GiB
Duration : 1h 26mn
Overall bit rate : 2 431 Kbps
Movie name : Cabin Fever 2: Spring Fever 2009 - The Jolly Roger by Pirat.Ca [zyyx]
Encoded date : UTC 2012-05-20 12:47:07
Writing application : mkvmerge v4.9.1 ('Ich will') сборка от Jul 11 2011 23:53:15
Writing library : libebml v1.2.1 + libmatroska v1.1.1

Video
ID : 1
Format : AVC
Format/Info : Advanced Video Codec
Format profile : High@L4.1
Format settings, CABAC : Yes
Format settings, ReFrames : 11 frames
Codec ID : V_MPEG4/ISO/AVC
Duration : 1h 26mn
Bit rate : 1 793 Kbps
Width : 1 024 pixels
Height : 432 pixels
Display aspect ratio : 2.35:1
Frame rate : 24.000 fps
Color space : YUV
Chroma subsampling : 4:2:0
Bit depth : 8 bits
Scan type : Progressive
Bits/(Pixel*Frame) : 0.169
Stream size : 1.05 GiB (72%)
Writing library : x264 core 116 r2044 392e762
Encoding settings : cabac=1 / ref=11 / deblock=1:-2:-1 / analyse=0x3:0x133 / me=umh / subme=10 / psy=1 / psy_rd=1.00:0.20 / mixed_ref=1 / me_range=32 / chroma_me=1 / trellis=2 / 8x8dct=1 / cqm=0 / deadzone=21,11 / fast_pskip=1 / chroma_qp_offset=-3 / threads=6 / sliced_threads=0 / nr=0 / decimate=1 / interlaced=0 / bluray_compat=0 / constrained_intra=0 / bframes=6 / b_pyramid=2 / b_adapt=2 / b_bias=0 / direct=3 / weightb=1 / open_gop=0 / weightp=2 / keyint=250 / keyint_min=23 / scenecut=40 / intra_refresh=0 / rc_lookahead=60 / rc=2pass / mbtree=1 / bitrate=1793 / ratetol=1.0 / qcomp=0.60 / qpmin=0 / qpmax=69 / qpstep=4 / cplxblur=20.0 / qblur=0.5 / ip_ratio=1.40 / aq=1:1.00
Default : Yes
Forced : No

Audio #1
ID : 2
Format : AC-3
Format/Info : Audio Coding 3
Mode extension : CM (complete main)
Codec ID : A_AC3
Duration : 1h 26mn
Bit rate mode : Constant
Bit rate : 448 Kbps
Channel(s) : 2 channels
Channel positions : Front: L R
Sampling rate : 48.0 KHz
Bit depth : 16 bits
Compression mode : Lossy
Stream size : 276 MiB (18%)
Default : Yes
Forced : No

Audio #2
ID : 3
Format : AC-3
Format/Info : Audio Coding 3
Mode extension : CM (complete main)
Codec ID : A_AC3
Duration : 1h 26mn
Bit rate mode : Constant
Bit rate : 192 Kbps
Channel(s) : 2 channels
Channel positions : Front: L R
Sampling rate : 48.0 KHz
Bit depth : 16 bits
Compression mode : Lossy
Stream size : 118 MiB (8%)
Default : No
Forced : No





Релиз от:



   Похожие торренты   Торрент   Размер 
В этой теме нет новых непрочитанных сообщений. Лихорадка: Весеннее обострение / Cabin Fever 2: Spring Fever (2009) HDRip | Лицензия

72 | 6

1.37 ГБ

В этой теме нет новых непрочитанных сообщений. Лихорадка: Весеннее обострение / Cabin Fever 2: Spring Fever (2009) HDRip | Лицензия

8 | 5

701.67 МБ

В этой теме нет новых непрочитанных сообщений. Лихорадка / Cabin Fever (2002) HDRip-AVC от ExKinoRay | D

12 | 4

745.95 МБ

В этой теме нет новых непрочитанных сообщений. Лихорадка / Cabin Fever (2002) BDRip от HQ-ViDEO

8 | 15

1.69 ГБ

В этой теме нет новых непрочитанных сообщений. Лихорадка / Cabin Fever (2002) BDRip | Unrated Director's Cut

55 | 17

833.17 МБ

В этой теме нет новых непрочитанных сообщений. Лихорадка / Cabin Fever (2002) BDRip-AVC от Rulya74 | Unrated Director's Cut

19 | 6

1.45 ГБ

В этой теме нет новых непрочитанных сообщений. Лихорадка / Cabin Fever (2002) BDRip 720p от R.G. GoldenShara | Unrated Director's Cut

14 | 4

2.19 ГБ




Вы не можете начинать темы
Вы не можете отвечать на сообщения
Вы не можете редактировать свои сообщения
Вы не можете удалять свои сообщения
Вы не можете добавлять вложения

Перейти:  
Для Мосгорсуда, Роскомнадзора и рекламодателей: mosgorsud-torrent[собачка]yandex.ru
 Вход
ppkBB3cker v.2 © 2008-2014 @ PPK
[ Time : 0.884s | 19 Queries | GZIP : Off ]

cron