img image001 image001 image001 image001 image001 image001 image001 image001 image001 image001 image001 image001 image001 image001 image001

Planets Sun Sun Sun
Статистика раздачи
Автор: Снежана | Размер: 1.46 ГБ | Добавлен: 23 июл 2013
Раздают: 1    Качают: 2
Скачать торрент
Скачать торрент
Описание торрента

СообщениеДобавлено: 23 июл 2013 

#77

Информация о фильме
Оригинальное название: Поезд идёт на восток
Год выпуска: 1947
Страна: СССР
Жанр: Комедия, мелодрама

Описание фильма:
Легендарная романтическая комедия, вышедшая на экраны в первые послевоенные годы. Морской офицер Лаврентьев и агроном Зина Соколова встретились 9 мая 1945 года в поезде "Москва-Владивосток". Отстав от поезда на одной из станций, они получают возможность лучше присмотреться друг к другу. В конце их долгого путешествия на Дальний Восток, полного головокружительных и романтических приключений, они понимают, что расстаются ненадолго...

Режиссер: Юлий Райзман
Актеры: Лидия Драновская, Петр Глебов, Владимир Дорофеев, Константин Сорокин, Леонид Галлис, Мария Яроцкая, Владимир Любимов, Владимир Уральский, Николай Горлов, Татьяна Барышева, Сергей Комаров, Андрей Петров, Олеся Иванова, Александра Денисова, Мария Андрианова, Тихон Хренников

Продолжительность: 01:27:02
[kp]43200[/kp]

Видеокодек: XviD
Битрейт видео: ~2010 kbps
Размер кадра: 688x512
Качество видео: DVDRip
Аудиокодек: АС3, 2 ch
Битрейт аудио: 384.00 kbps
Общее
Полное имя : C:Users1DownloadsPoezd.idet.na.vostok.avi
Формат : AVI
Формат/Информация : Audio Video Interleave
Размер файла : 1,46 Гбайт
Продолжительность : 1 ч. 27 м.
Общий поток : 2406 Кбит/сек
Программа кодирования : VirtualDubModRus 1.5.10.2 (build 2542/release)
Библиотека кодирования : VirtualDubMod build 2542/release

Видео
Идентификатор : 0
Формат : MPEG-4 Visual
Профиль формата : Advanced Simple@L5
Параметр BVOP формата : 2
Параметр QPel формата : Нет
Параметр GMC формата : Без точки перехода
Параметр матрицы формата : Default (MPEG)
Режим смешивания : Сжатый битовый поток
Идентификатор кодека : XVID
Идентификатор кодека/Подсказка : XviD
Продолжительность : 1 ч. 27 м.
Битрейт : 2012 Кбит/сек
Ширина : 688 пикселей
Высота : 512 пикселей
Соотношение сторон : 4:3
Частота кадров : 25,000 кадров/сек
Цветовое пространство : YUV
Субдискретизация насыщенности : 4:2:0
Битовая глубина : 8 бит
Тип развёртки : Прогрессивная
Метод сжатия : С потерями
Бит/(Пиксели*Кадры) : 0.228
Размер потока : 1,22 Гбайт (84%)
Библиотека кодирования : XviD 64

Аудио
Идентификатор : 1
Формат : AC-3
Формат/Информация : Audio Coding 3
Расширение режима : CM (complete main)
Идентификатор кодека : 2000
Продолжительность : 1 ч. 27 м.
Вид битрейта : Постоянный
Битрейт : 384 Кбит/сек
Каналы : 2 канала
Расположение каналов : Front: L R
Частота : 48,0 КГц
Битовая глубина : 16 бит
Метод сжатия : С потерями
Размер потока : 239 Мбайт (16%)
Выравнивание : Соединение по промежуткам
Продолжительность промежутка : 40 мс. (1,00 видеокадр)
Время предзагрузки промежутка : 512 мс.

Скриншоты:




Фильм не произвёл должного впечатления на Иосифа Виссарионовича, при просмотре которого, где-то по середине фильма Вождь спросил, кого-то из киношных начальников:
- А где примерно сейчас находится поезд?
- Я думаю, что недалеко от Свердловска.
Не растерявшись, ответил чиновник.
- Тогда можно я сойду на следующей станции?
Спросил Сталин и, не дожидаясь ответа, вышел из кинозала.



   Похожие торренты   Торрент   Размер 
В этой теме нет новых непрочитанных сообщений. Поезд идёт на восток (1947) DVDRip-AVC

8 | 4

1.99 ГБ

В этой теме нет новых непрочитанных сообщений. Поезд идёт на восток (1947) DVDRip от New-Team

5 | 1

1.09 ГБ

В этой теме нет новых непрочитанных сообщений. Поезд идёт на восток (1947) DVDRip-AVC от New-Team

31 | 0

1.09 ГБ

В этой теме нет новых непрочитанных сообщений. Поезд идёт на восток (1947) DVDRip от New-Team

17 | 1

744.74 МБ

В этой теме нет новых непрочитанных сообщений. Поезд дальше не идет / Stag Night (2008) DVDRip

47 | 2

1.36 ГБ

В этой теме нет новых непрочитанных сообщений. Поезд дальше не идет / Stag Night (2008) DVDRip

0 | 5

743.73 МБ

В этой теме нет новых непрочитанных сообщений. Поезд дальше не идет / Stag Night (2008) DVDRip от Xixidok

0 | 2

699.11 МБ




Вы не можете начинать темы
Вы не можете отвечать на сообщения
Вы не можете редактировать свои сообщения
Вы не можете удалять свои сообщения
Вы не можете добавлять вложения

Перейти:  
Для Мосгорсуда, Роскомнадзора и рекламодателей: mosgorsud-torrent[собачка]yandex.ru
 Вход
ppkBB3cker v.2 © 2008-2014 @ PPK
[ Time : 0.043s | 16 Queries | GZIP : Off ]

Торрент трекер RUTOR.IN, Не можете зайти на rutor.org? Какой новый адрес рутор? Какое зеркало рутор? Не работает rutor.org и зеркала? Тогда наш торрент специально для вас. Rutor.in неофициальное зеркало rutor. В случае если у Вас заблокирован rutor или вдруг Вы не можете на него зайти, то Вы без труда сможете скачать бесплатно и без рекламы последние новинки кино, игр, сериалов и прочего у нас, на Rutor.in. Не нужно использовать прокси, чтобы зайти на рутор, достаточно воспользоваться нашим ресурсом. Все новые фильмы, игры, сериалы, книги и музыка за 2013 и 2014 годы через торрент бесплатно. Скачивайте фильмы в хорошем качестве, игры для пк, xbox, playstation без регистрации. У нас вы найдете новые Зарубежные сериалы и Русские сериалы 2013, 2014, 2015 годов. Оставайтесь с нами, качайте любимые фильмы, игры, сериалы, книги и музыку.
cron