img image001 image001 image001 image001 image001 image001 image001 image001 image001 image001 image001 image001 image001 image001 image001 image001

Planets Sun Sun Sun
Статистика раздачи
Автор: Снежана | Размер: 2.19 ГБ | Добавлен: 23 июл 2013
Раздают: 110    Качают: 14
Скачать торрент
Скачать торрент
Описание торрента

СообщениеДобавлено: 23 июл 2013 



Информация о фильме
Название: Крёстная мать
Оригинальное название: Bella mafia
Год выхода: 1997
Жанр: Драма, Криминал
Режиссер: Дэвид Грин /David Greene
В ролях: Ванесса Редгрэйв /Vanessa Redgrave/, Деннис Фарина /Dennis Farina/, Настасья Кински /Nastassja Kinski/, Дженнифер Тилли /Jennifer Tilly/, Иллеана Дуглас /Illeana Douglas/, Джеймс Марсден /James Marsden/, Джина Филипс /Gina Philips/, Ричард Портнов /Richard Portnow/, Франко Неро /Franco Nero/, Питер Богданович /Peter Bogdanovich/, Кармен Ардженциано /Carmen Argenziano/, Майкл Хэйден /Michael Hayden/, Ричард Джозеф Пол /Richard Joseph Paul/, У. Эрл Браун /W. Earl Brown/, Тони Маджо /Tony Maggio/, Томас Арана /Tomas Arana/, Кристофер Шоу /Christopher Shaw/, Майкл Рэйнор /Michael Raynor/, Димитра Арлис /Dimitra Arlys/, Пол Экстайн /Paul Eckstein/, Энтони Ло Бьянко /Anthony Lo Bianco/

О фильме:
Криминальная драма рассказывает как женщины мстили за своих мужчин. Они были женами, сестрами, дочерьми и матерями убитых гангстеров-мафиози. И сплотились, чтобы восстановить справедливость...
В ходе разборки враждующих кланов, убивают всех мужчин Лучиано, главу семьи, братьев, будущего мужа внучки, даже двух мальчиков-близнецов! Продолжения рода не будет…
Такая безжалостность поражает! И женщины семьи Лучиано, став свидетелями этой кровавой бойни будут мстить и месть их будет страшной, их методы изощренны и их руки не дрогнут, как когда-то не дрогнула рука убийцы детей.


Страна: США
Продолжительность: 02:50:43
Перевод: Профессиональный (двухголосый, закадровый)

Файл
Кодек: Xvid
Качество: DVDRip c DVD9
Видео: 704x528, 25.000 fps, ~1672 Kbps
Звук: AC3, 2 ch, 192.00 kbps, 48.00 khz
General
Complete name : Крёстная Мать.1997.DVDRip.avi
Format : AVI
Format/Info : Audio Video Interleave
Format profile : OpenDML
File size : 2.19 GiB
Duration : 2h 46mn
Overall bit rate : 1 876 Kbps
Writing application : VirtualDubMod 1.5.10.3 | www.virtualdub-fr.org || (build 2550/release)
Writing library : VirtualDubMod build 2550/release

Video
ID : 0
Format : MPEG-4 Visual
Format profile : Advanced Simple@L5
Format settings, BVOP : 1
Format settings, QPel : No
Format settings, GMC : No warppoints
Format settings, Matrix : Custom
Codec ID : XVID
Codec ID/Hint : XviD
Duration : 2h 46mn
Bit rate : 1 672 Kbps
Width : 704 pixels
Height : 528 pixels
Display aspect ratio : 4:3
Frame rate : 25.000 fps
Color space : YUV
Chroma subsampling : 4:2:0
Bit depth : 8 bits
Scan type : Progressive
Compression mode : Lossy
Bits/(Pixel*Frame) : 0.180
Stream size : 1.95 GiB (89%)
Writing library : XviD 65

Audio
ID : 1
Format : AC-3
Format/Info : Audio Coding 3
Mode extension : CM (complete main)
Format settings, Endianness : Big
Codec ID : 2000
Duration : 2h 46mn
Bit rate mode : Constant
Bit rate : 192 Kbps
Channel(s) : 2 channels
Channel positions : Front: L R
Sampling rate : 48.0 KHz
Bit depth : 16 bits
Compression mode : Lossy
Stream size : 229 MiB (10%)
Alignment : Split accross interleaves
Interleave, duration : 40 ms (1.00 video frame)
Interleave, preload duration : 500 ms



Релиз от: Leon-masl



   Похожие торренты   Торрент   Размер 
В этой теме нет новых непрочитанных сообщений. Крестная мать / Bella Mafia (1997) DVDRip-AVC | P, P2, A

18 | 3

4.97 ГБ

В этой теме нет новых непрочитанных сообщений. Крестная мать 2 / Vendetta: Secrets of a Mafia Bride [S01] (1990) SATRip | P2

0 | 0

4.03 ГБ

В этой теме нет новых непрочитанных сообщений. Двойник / The Assignment (1997) DVDRip от Leon-masl | P, A

1 | 1

1.47 ГБ

В этой теме нет новых непрочитанных сообщений. Крутые Стволы / Mean Guns (1997) DVDRip от Leon-masl | P2 | Director's cut

111 | 30

1.46 ГБ

В этой теме нет новых непрочитанных сообщений. Драйв / Непобедимый / Drive (1997) DVDRip от Leon-masl | P, A, Directors Cut

118 | 20

1.47 ГБ

В этой теме нет новых непрочитанных сообщений. 187 / One Eight Seven (1997) HDRip от Leon-masl | P2, A

83 | 20

1.47 ГБ

В этой теме нет новых непрочитанных сообщений. К бою / Горбун / Le Bossu (1997) HDRip от Leon-masl

149 | 19

1.46 ГБ




Вы не можете начинать темы
Вы не можете отвечать на сообщения
Вы не можете редактировать свои сообщения
Вы не можете удалять свои сообщения
Вы не можете добавлять вложения

Перейти:  
 Вход
ppkBB3cker v.2 © 2008-2014 @ PPK
[ Time : 0.035s | 16 Queries | GZIP : Off ]

cron