img image001 image001 image001 image001 image001 image001 image001 image001 image001 image001 image001 image001 image001 image001 image001

Planets Sun Sun Sun
Статистика раздачи
Автор: Снежана | Размер: 13.1 ГБ | Добавлен: 23 июл 2013
Раздают: 42    Качают: 4
Скачать торрент
Скачать торрент
Описание торрента

СообщениеДобавлено: 23 июл 2013 

#77

Человек-Паук: Трилогия / Spider-Man: Trilogy (2002-2007) BDRip 720p от NoLimits-Team


Информация о фильме
Название: Человек-Паук: Трилогия
Оригинальное название: Spider-Man: Trilogy
Год выхода: 2002 | 2004 | 2007
Жанр: Боевик, фэнтези
Режиссер: Сэм Рэйми
Продолжительность: 02:01:12 | 02:07:28 | 02:19:11
Релиз Группа | Автор Рипа:

Информация о фильме
Название: Человек-паук
Оригинальное название: Spider-Man
Год выхода: 2002
Жанр: Боевик, фэнтези
Режиссер: Сэм Рэйми
В ролях: Тоби Магвайр, Уиллем Дафо, Кирстен Данст, Джеймс Франко, Клифф Робертсон, Розмари Харрис, Дж.К. Симмонс, Джо Манганьелло, Джерри Бекер, Билл Нанн, Джек Беттс, Стэнли Андерсон, Рон Перкинс, Майкл Пападжон, К.К. Доддс, Тед Рэйми, Брюс Кэмпбелл, Элизабет Бэнкс, Джон Пэкстон, Тим Де Зарн, Тейлор Гилберт

Сюжет фильма
Еще вчера Питер Паркер был обычным школьником, которого все считали неудачником и занудой, но в один прекрасный день с ним происходит чудо. Питера кусает паук — мутант, после чего с нескладным юношей происходит фантастическая метаморфоза!
Невероятным образом обостряются все его чувства. Он обретает огромную силу и ловкость, а главное, умение — лазать по стенам и выбрасывать прочную как сталь паутину! Так Питер начинает новую жизнь в образе таинственного Человека-Паука, спасителя людей и грозы преступного мира.
Но там, где есть супергерой, рано или поздно всегда объявляется и суперзлодей. И вскоре Человеку-Пауку придется сразиться с Зеленым Гоблином — террориризирующим город монстром на летающем глайдере. В этой великой битве решится не только их судьба, но и судьбы тысяч жителей города…

Выпущено: США
Продолжительность: 02:01:12
Перевод: Дублированный
Субтитры: Русские | Полные

Файл
Качество: BDRip 720p (исходник Blu-Ray)
Видео: 1280x692, 4518 Кбит/сек, 23,976 кадр/сек, AVC, x264, High@L4.1, 1.85:1, 0.213 Бит/[Пиксели*Кадры], 2pass
Аудио: AC-3, 640 Кбит/сек, 6 канала(ов), 48,0 КГц
Чаптеры: Есть



Семпл



Format : Matroska
Format version : Version 4 / Version 2
File size : 4.37 GiB
Duration : 2h 1mn
Overall bit rate : 5 157 Kbps
Movie name : Человек-паук.(2002).BDRip.720p.(DVD5).[NoLimits-Team]
Encoded date : UTC 2013-03-08 05:18:12
Writing application : mkvmerge v6.0.0 ('Coming Up For Air') built on Jan 20 2013 09:52:00
Writing library : libebml v1.3.0 + libmatroska v1.4.0

Video
ID : 1
Format : AVC
Format/Info : Advanced Video Codec
Format profile : High@L4.1
Format settings, CABAC : Yes
Format settings, ReFrames : 9 frames
Codec ID : V_MPEG4/ISO/AVC
Duration : 2h 1mn
Bit rate : 4 518 Kbps
Width : 1 280 pixels
Height : 692 pixels
Display aspect ratio : 1.85:1
Frame rate mode : Constant
Frame rate : 23.976 fps
Color space : YUV
Chroma subsampling : 4:2:0
Bit depth : 8 bits
Scan type : Progressive
Bits/(Pixel*Frame) : 0.213
Stream size : 3.74 GiB (86%)
Title : Человек-паук.(2002).BDRip.720p.(DVD5).[NoLimits-Team]
Writing library : x264 core 129 r2245 bc13772
Encoding settings : cabac=1 / ref=9 / deblock=1:0:0 / analyse=0x3:0x133 / me=umh / subme=11 / psy=1 / psy_rd=1.00:0.00 / mixed_ref=1 / me_range=64 / chroma_me=1 / trellis=2 / 8x8dct=1 / cqm=0 / deadzone=21,11 / fast_pskip=0 / chroma_qp_offset=-2 / threads=9 / lookahead_threads=1 / sliced_threads=0 / nr=0 / decimate=1 / interlaced=0 / bluray_compat=0 / constrained_intra=0 / bframes=13 / b_pyramid=2 / b_adapt=2 / b_bias=0 / direct=3 / weightb=1 / open_gop=0 / weightp=2 / keyint=240 / keyint_min=23 / scenecut=40 / intra_refresh=0 / rc_lookahead=60 / rc=2pass / mbtree=1 / bitrate=4518 / ratetol=1.0 / qcomp=0.60 / qpmin=0 / qpmax=69 / qpstep=4 / cplxblur=20.0 / qblur=0.5 / ip_ratio=1.40 / aq=1:1.00
Language : English
Default : Yes
Forced : No

Audio
ID : 2
Format : AC-3
Format/Info : Audio Coding 3
Mode extension : CM (complete main)
Format settings, Endianness : Big
Codec ID : A_AC3
Duration : 2h 1mn
Bit rate mode : Constant
Bit rate : 640 Kbps
Channel(s) : 6 channels
Channel positions : Front: L C R, Side: L R, LFE
Sampling rate : 48.0 KHz
Bit depth : 16 bits
Compression mode : Lossy
Stream size : 555 MiB (12%)
Title : Дублированный
Language : Russian
Default : Yes
Forced : No

Text
ID : 3
Format : UTF-8
Codec ID : S_TEXT/UTF8
Codec ID/Info : UTF-8 Plain Text
Title : Русские (полные)
Language : Russian
Default : No
Forced : No

Menu
00:00:00.000 : :Chapter 01
00:06:29.472 : :Chapter 02
00:09:22.895 : :Chapter 03
00:14:56.186 : :Chapter 04
00:17:50.652 : :Chapter 05
00:21:53.603 : :Chapter 06
00:23:28.615 : :Chapter 07
00:25:18.767 : :Chapter 08
00:34:35.114 : :Chapter 09
00:40:22.169 : :Chapter 10
00:41:44.126 : :Chapter 11
00:43:13.882 : :Chapter 12
00:44:40.010 : :Chapter 13
00:54:32.978 : :Chapter 14
00:55:52.557 : :Chapter 15
01:00:48.936 : :Chapter 16
01:04:20.773 : :Chapter 17
01:05:57.036 : :Chapter 18
01:12:12.369 : :Chapter 19
01:14:18.871 : :Chapter 20
01:15:48.669 : :Chapter 21
01:19:35.520 : :Chapter 22
01:22:06.463 : :Chapter 23
01:25:13.608 : :Chapter 24
01:30:39.225 : :Chapter 25
01:39:36.679 : :Chapter 26
01:45:08.385 : :Chapter 27
01:50:27.829 : :Chapter 28

Информация о фильме
Название: Человек-паук 2
Оригинальное название: Spider-Man 2
Год выхода: 2004
Жанр: Боевик, фэнтези
Режиссер: Сэм Рэйми
В ролях: Тоби Магвайр, Кирстен Данст, Джеймс Франко, Альфред Молина, Розмари Харрис, Дж.К. Симмонс, Донна Мерфи, Дэниэл Гиллис, Дилан Бэйкер, Билл Нанн, Ванесса Ферлито, Аасиф Мандви, Уиллем Дафо, Клифф Робертсон, Тед Рэйми, Элизабет Бэнкс, Брюс Кэмпбелл, Грегг Эдельман, Эля Баскин, Маджейна Това, Дэниэл Дае Ким

Сюжет фильма
С момента событий, произошедших в первом фильме, прошло два года. Тихоня Питер Паркер сталкивается с новыми проблемами: он борется со своим «даром и проклятьем», отчаянно пытаясь балансировать на грани двух своих жизней: метающего паутину супергероя Человека-Паука и обычного студента колледжа…
Мучимый своими секретами, Питер понимает, что его отношения со всеми, кто ему дорог, в опасности или заходят в тупик. Его любовь к Мэри Джейн становится еще сильнее, обостряемая порывом Питера раскрыть ей свой секрет и признаться в любви. Дружба с Гарри осложняется горечью молодого Осборна по умершему отцу и всё большим желанием отомстить Человеку-Пауку.
Даже любимая тетушка Мэй, у которой были нелегкие времена после смерти дяди Бена, начинает что-то подозревать насчет своего племянника. Жизнь Питера становится еще более сложной, когда он сталкивается с новым суперзлодеем — доктором Отто Октавиусом. Питер должен использовать все свои суперспособности, чтобы одолеть этого жестокого безумца с восемью конечностями…

Выпущено: США
Продолжительность: 02:07:28
Перевод: Дублированный
Субтитры: Русские | Полные

Файл
Качество: BDRip 720p (исходник Blu-Ray)
Видео: 1280x534, 4456 Кбит/сек, 23,976 кадр/сек, AVC, x264, High@L4.1, 2.40:1, 0.272 Бит/[Пиксели*Кадры], 2pass
Аудио: AC-3, 448 Кбит/сек, 6 канала(ов), 48,0 КГц
Чаптеры: Есть



Семпл



Format : Matroska
Format version : Version 4 / Version 2
File size : 4.37 GiB
Duration : 2h 7mn
Overall bit rate : 4 905 Kbps
Movie name : Человек-паук 2.(2004).BDRip.720p.(DVD5).[NoLimits-Team]
Encoded date : UTC 2013-03-08 04:59:49
Writing application : mkvmerge v6.0.0 ('Coming Up For Air') built on Jan 20 2013 09:52:00
Writing library : libebml v1.3.0 + libmatroska v1.4.0

Video
ID : 1
Format : AVC
Format/Info : Advanced Video Codec
Format profile : High@L4.1
Format settings, CABAC : Yes
Format settings, ReFrames : 12 frames
Codec ID : V_MPEG4/ISO/AVC
Duration : 2h 7mn
Bit rate : 4 456 Kbps
Width : 1 280 pixels
Height : 534 pixels
Display aspect ratio : 2.40:1
Frame rate mode : Constant
Frame rate : 23.976 fps
Color space : YUV
Chroma subsampling : 4:2:0
Bit depth : 8 bits
Scan type : Progressive
Bits/(Pixel*Frame) : 0.272
Stream size : 3.88 GiB (89%)
Title : Человек-паук 2.(2004).BDRip.720p.(DVD5).[NoLimits-Team]
Writing library : x264 core 129 r2245 bc13772
Encoding settings : cabac=1 / ref=12 / deblock=1:0:0 / analyse=0x3:0x133 / me=umh / subme=11 / psy=1 / psy_rd=1.00:0.00 / mixed_ref=1 / me_range=64 / chroma_me=1 / trellis=2 / 8x8dct=1 / cqm=0 / deadzone=21,11 / fast_pskip=0 / chroma_qp_offset=-2 / threads=9 / lookahead_threads=1 / sliced_threads=0 / nr=0 / decimate=1 / interlaced=0 / bluray_compat=0 / constrained_intra=0 / bframes=14 / b_pyramid=2 / b_adapt=2 / b_bias=0 / direct=3 / weightb=1 / open_gop=0 / weightp=2 / keyint=240 / keyint_min=23 / scenecut=40 / intra_refresh=0 / rc_lookahead=60 / rc=2pass / mbtree=1 / bitrate=4456 / ratetol=1.0 / qcomp=0.60 / qpmin=0 / qpmax=69 / qpstep=4 / cplxblur=20.0 / qblur=0.5 / ip_ratio=1.40 / aq=1:1.00
Language : English
Default : Yes
Forced : No

Audio
ID : 2
Format : AC-3
Format/Info : Audio Coding 3
Mode extension : CM (complete main)
Format settings, Endianness : Big
Codec ID : A_AC3
Duration : 2h 7mn
Bit rate mode : Constant
Bit rate : 448 Kbps
Channel(s) : 6 channels
Channel positions : Front: L C R, Side: L R, LFE
Sampling rate : 48.0 KHz
Bit depth : 16 bits
Compression mode : Lossy
Stream size : 408 MiB (9%)
Title : Дублированный
Language : Russian
Default : Yes
Forced : No

Text
ID : 3
Format : UTF-8
Codec ID : S_TEXT/UTF8
Codec ID/Info : UTF-8 Plain Text
Title : Русские (полные)
Language : Russian
Default : No
Forced : No

Menu
00:00:00.000 : :Chapter 01
00:03:27.457 : :Chapter 02
00:07:24.902 : :Chapter 03
00:08:52.823 : :Chapter 04
00:10:06.314 : :Chapter 05
00:14:28.951 : :Chapter 06
00:17:07.443 : :Chapter 07
00:18:55.551 : :Chapter 08
00:22:12.497 : :Chapter 09
00:22:50.535 : :Chapter 10
00:24:23.712 : :Chapter 11
00:26:22.122 : :Chapter 12
00:28:27.580 : :Chapter 13
00:29:35.064 : :Chapter 14
00:31:03.653 : :Chapter 15
00:33:09.862 : :Chapter 16
00:39:50.513 : :Chapter 17
00:41:50.758 : :Chapter 18
00:43:09.128 : :Chapter 19
00:44:40.219 : :Chapter 20
00:46:57.230 : :Chapter 21
00:50:01.164 : :Chapter 22
00:53:02.262 : :Chapter 23
00:58:04.772 : :Chapter 24
00:59:36.280 : :Chapter 25
01:00:01.472 : :Chapter 26
01:01:31.270 : :Chapter 27
01:03:40.399 : :Chapter 28
01:05:24.420 : :Chapter 29
01:08:14.423 : :Chapter 30
01:09:40.676 : :Chapter 31
01:13:48.423 : :Chapter 32
01:16:42.347 : :Chapter 33
01:19:16.167 : :Chapter 34
01:21:25.964 : :Chapter 35
01:25:16.194 : :Chapter 36
01:26:49.370 : :Chapter 37
01:28:11.285 : :Chapter 38
01:30:40.142 : :Chapter 39
01:33:05.162 : :Chapter 40
01:34:12.771 : :Chapter 41
01:35:10.871 : :Chapter 42
01:37:12.368 : :Chapter 43
01:39:56.448 : :Chapter 44
01:42:38.610 : :Chapter 45
01:44:52.828 : :Chapter 46
01:48:03.643 : :Chapter 47
01:53:07.613 : :Chapter 48
01:55:30.173 : :Chapter 49
01:57:56.902 : :Chapter 50
02:01:54.473 : :Chapter 51
02:02:44.148 : :Chapter 52

Информация о фильме
Название: Человек-паук 3: Враг в отражении
Оригинальное название: Spider-Man 3
Год выхода: 2007
Жанр: Боевик, фэнтези
Режиссер: Сэм Рэйми
В ролях: Тоби Магвайр, Кирстен Данст, Джеймс Франко, Томас Хейден Черч, Тофер Грэйс, Брайс Даллас Ховард, Розмари Харрис, Дж.К. Симмонс, Джеймс Кромуэлл, Тереза Расселл, Дилан Бэйкер, Билл Нанн, Брюс Кэмпбелл, Элизабет Бэнкс, Тед Рэйми, Уиллем Дафо, Перла Хэйни-Джардин, Клифф Робертсон, Эля Баскин, Маджейна Това, Джон Пэкстон

Сюжет фильма
Прошло пять лет с тех пор, как Питер осознал, что «с Великой силой приходит Великая ответственность!» и три года с тех пор, как он отказался быть борцом за справедливость. Но сейчас кажется, Питер прекрасно научился жить несколькими жизнями. Он хорошо учится, Нью-Йорк признал его героем, отношения с Мэри Джейн прочные. Питер даже намеревается сделать ей предложение!
Но к сожалению, его лучший друг Гарри Озборн по-прежнему считает, что именно Человек-Паук несет ответственность за безвременную кончину его отца. Гарри намеревается отомстить ему в образе Нового Гоблина. В то же самое время на криминальной сцене Нью-Йорка появляется другой могущественный суперзлодей, известный как Песочный Человек.
Когда Человек-Паук надевает таинственный черный костюм, его темная, более мстительная сторона полностью поглощает его. Эти трансформации заставляют его встретиться с самым сильным противником: с самим собой…

Выпущено: США
Продолжительность: 02:19:11
Перевод: Дублированный
Субтитры: Русские | Полные

Файл
Качество: BDRip 720p (исходник Blu-Ray)
Видео: 1280x534, 3851 Кбит/сек, 23,976 кадр/сек, AVC, x264, High@L4.1, 2.40:1, 0.235 Бит/[Пиксели*Кадры], 2pass
Аудио: AC-3, 640 Кбит/сек, 6 канала(ов), 48,0 КГц
Чаптеры: Есть



Семпл



Format : Matroska
Format version : Version 4 / Version 2
File size : 4.36 GiB
Duration : 2h 19mn
Overall bit rate : 4 488 Kbps
Movie name : Человек-паук 3.(2007).BDRip.720p.(DVD5).[NoLimits-Team]
Encoded date : UTC 2013-03-09 04:17:40
Writing application : mkvmerge v6.0.0 ('Coming Up For Air') built on Jan 20 2013 09:52:00
Writing library : libebml v1.3.0 + libmatroska v1.4.0

Video
ID : 1
Format : AVC
Format/Info : Advanced Video Codec
Format profile : High@L4.1
Format settings, CABAC : Yes
Format settings, ReFrames : 12 frames
Codec ID : V_MPEG4/ISO/AVC
Duration : 2h 19mn
Bit rate : 3 851 Kbps
Width : 1 280 pixels
Height : 534 pixels
Display aspect ratio : 2.40:1
Frame rate mode : Constant
Frame rate : 23.976 fps
Color space : YUV
Chroma subsampling : 4:2:0
Bit depth : 8 bits
Scan type : Progressive
Bits/(Pixel*Frame) : 0.235
Stream size : 3.65 GiB (84%)
Title : Человек-паук 3.(2007).BDRip.720p.(DVD5).[NoLimits-Team]
Writing library : x264 core 129 r2245 bc13772
Encoding settings : cabac=1 / ref=12 / deblock=1:0:0 / analyse=0x3:0x133 / me=umh / subme=11 / psy=1 / psy_rd=1.00:0.00 / mixed_ref=1 / me_range=64 / chroma_me=1 / trellis=2 / 8x8dct=1 / cqm=0 / deadzone=21,11 / fast_pskip=0 / chroma_qp_offset=-2 / threads=9 / lookahead_threads=1 / sliced_threads=0 / nr=0 / decimate=1 / interlaced=0 / bluray_compat=0 / constrained_intra=0 / bframes=14 / b_pyramid=2 / b_adapt=2 / b_bias=0 / direct=3 / weightb=1 / open_gop=0 / weightp=2 / keyint=240 / keyint_min=23 / scenecut=40 / intra_refresh=0 / rc_lookahead=60 / rc=2pass / mbtree=1 / bitrate=3851 / ratetol=1.0 / qcomp=0.60 / qpmin=0 / qpmax=69 / qpstep=4 / cplxblur=20.0 / qblur=0.5 / ip_ratio=1.40 / aq=1:1.00
Language : English
Default : Yes
Forced : No

Audio
ID : 2
Format : AC-3
Format/Info : Audio Coding 3
Mode extension : CM (complete main)
Format settings, Endianness : Big
Codec ID : A_AC3
Duration : 2h 19mn
Bit rate mode : Constant
Bit rate : 640 Kbps
Channel(s) : 6 channels
Channel positions : Front: L C R, Side: L R, LFE
Sampling rate : 48.0 KHz
Bit depth : 16 bits
Compression mode : Lossy
Stream size : 637 MiB (14%)
Title : Дублированный
Language : Russian
Default : Yes
Forced : No

Text
ID : 3
Format : UTF-8
Codec ID : S_TEXT/UTF8
Codec ID/Info : UTF-8 Plain Text
Title : Русские (полные)
Language : Russian
Default : No
Forced : No

Menu
00:00:00.000 : :Chapter 01
00:03:11.524 : :Chapter 02
00:04:39.737 : :Chapter 03
00:07:59.770 : :Chapter 04
00:08:33.679 : :Chapter 05
00:10:30.254 : :Chapter 06
00:13:54.708 : :Chapter 07
00:16:55.013 : :Chapter 08
00:22:24.301 : :Chapter 09
00:24:44.941 : :Chapter 10
00:27:11.546 : :Chapter 11
00:30:12.644 : :Chapter 12
00:32:31.240 : :Chapter 13
00:36:10.334 : :Chapter 14
00:39:43.964 : :Chapter 15
00:40:08.489 : :Chapter 16
00:41:43.209 : :Chapter 17
00:43:20.014 : :Chapter 18
00:44:43.472 : :Chapter 19
00:46:39.004 : :Chapter 20
00:49:24.544 : :Chapter 21
00:51:53.151 : :Chapter 22
00:59:27.730 : :Chapter 23
01:03:30.473 : :Chapter 24
01:06:34.532 : :Chapter 25
01:08:07.416 : :Chapter 26
01:10:45.824 : :Chapter 27
01:13:50.592 : :Chapter 28
01:15:23.393 : :Chapter 29
01:16:42.264 : :Chapter 30
01:19:21.715 : :Chapter 31
01:22:16.681 : :Chapter 32
01:24:21.347 : :Chapter 33
01:27:08.348 : :Chapter 34
01:30:17.787 : :Chapter 35
01:32:43.474 : :Chapter 36
01:35:14.375 : :Chapter 37
01:35:53.497 : :Chapter 38
01:40:46.331 : :Chapter 39
01:44:15.624 : :Chapter 40
01:47:20.225 : :Chapter 41
01:49:10.794 : :Chapter 42
01:52:52.724 : :Chapter 43
01:56:34.570 : :Chapter 44
01:59:57.106 : :Chapter 45
02:00:28.346 : :Chapter 46
02:02:26.756 : :Chapter 47
02:04:29.378 : :Chapter 48
02:06:11.313 : :Chapter 49
02:09:33.474 : :Chapter 50
02:11:56.491 : :Chapter 51
02:13:59.197 : :Chapter 52



   Похожие торренты   Торрент   Размер 
В этой теме нет новых непрочитанных сообщений. Человек-Паук: Трилогия / Spider-Man: Trilogy (2002-2007) BDRip-AVC

25 | 3

6.55 ГБ

В этой теме нет новых непрочитанных сообщений. Человек-паук. Трилогия / Spider-Man. Trilogy (2002-2007) BDRip

95 | 18

7.27 ГБ

В этой теме нет новых непрочитанных сообщений. Человек-Паук: Трилогия / Spider-Man: Trilogy (2002/2004/2007) BDRip

92 | 13

3.6 ГБ

В этой теме нет новых непрочитанных сообщений. Человек-Паук / Spider-Man (2002-2007) BDRip-AVC от HQCLUB | Трилогия / Trilogy

0 | 5

11.3 ГБ

В этой теме нет новых непрочитанных сообщений. Человек-Паук: Трилогия / Spider-Man: Trilogy (2002-2007) BDRip 1080p

15 | 6

23.28 ГБ

В этой теме нет новых непрочитанных сообщений. Человек-Паук: Трилогия / Spider-Man: The High-Definition Trilogy (2002/2004/2007) BDRip AVC

11 | 6

6.54 ГБ

В этой теме нет новых непрочитанных сообщений. Человек-Паук: Трилогия / Spider-Man: The High-Definition Trilogy (2002/2004/2007) BDRip от HELLYWOOD

0 | 2

11.78 ГБ




Вы не можете начинать темы
Вы не можете отвечать на сообщения
Вы не можете редактировать свои сообщения
Вы не можете удалять свои сообщения
Вы не можете добавлять вложения

Перейти:  
Для Мосгорсуда, Роскомнадзора и рекламодателей: mosgorsud-torrent[собачка]yandex.ru
 Вход
ppkBB3cker v.2 © 2008-2014 @ PPK
[ Time : 0.043s | 18 Queries | GZIP : Off ]

cron