img image001 image001 image001 image001 image001 image001 image001 image001 image001 image001 image001 image001 image001 image001 image001

Planets Sun Sun Sun
Статистика раздачи
Автор: Снежана | Размер: 2.18 ГБ | Добавлен: 23 июл 2013
Раздают: 43    Качают: 5
Скачать торрент
Скачать торрент
Описание торрента

СообщениеДобавлено: 23 июл 2013 

#77

Информация о фильме
Название: Слова
Оригинальное название: The Words
Год выхода: 2012
Жанр: Драма, мелодрама
Режиссер: Брайан Клагман, Ли Стернтал
В ролях: Брэдли Купер, Джереми Айронс, Оливия Уайлд, Зои Салдана, Деннис Куэйд, Брайан Клагман, Джон Ханна, Вито Филлипо, Майкл МакКин, Люсинда Дэвис
Сюжет фильма:

Рори Джэнсен — писатель, который наконец обретает долгожданную известность, но его роман-бестселлер оказывается написан другим человеком, которому он теперь должен заплатить высокую цену за украденные у него жизнь и работу.

Выпущено: США, Also Known As Pictures, Animus Films, Benaroya Pictures, Serena Films, Waterfall Media
Продолжительность: 01:42:26
Перевод: Дублированный
Субтитры: Русские полные

Файл
Качество: BDRip 720p (исходник Blu-ray Disc)
Видео: 1280x720, 2 664 Кбит/сек, 23.976 кадр/сек, AVC, x264, 16:9, 0.121 Бит/(Пиксели*Кадры), 2-pass
Аудио: AC-3, 384 Кбит/сек, 6 канала(ов), 48,0 КГц
Чаптеры: нет
Семпл




Format : Matroska
Format version : Version 4 / Version 2
File size : 2.18 GiB
Duration : 1h 42mn
Overall bit rate : 3 043 Kbps
Movie name : Слова.(2012).BDRip.720p.[NoLimits-Team]
Encoded date : UTC 2013-03-02 13:49:56
Writing application : mkvmerge v6.0.0 ('Coming Up For Air') built on Jan 20 2013 09:52:00
Writing library : libebml v1.3.0 + libmatroska v1.4.0

Video
ID : 1
Format : AVC
Format/Info : Advanced Video Codec
Format profile : High@L4.1
Format settings, CABAC : Yes
Format settings, ReFrames : 9 frames
Codec ID : V_MPEG4/ISO/AVC
Duration : 1h 42mn
Bit rate : 2 664 Kbps
Width : 1 280 pixels
Height : 720 pixels
Display aspect ratio : 16:9
Frame rate mode : Constant
Frame rate : 23.976 fps
Color space : YUV
Chroma subsampling : 4:2:0
Bit depth : 8 bits
Scan type : Progressive
Bits/(Pixel*Frame) : 0.121
Stream size : 1.86 GiB (85%)
Title : Слова.(2012).BDRip.720p.[NoLimits-Team]
Writing library : x264 core 129 r2245 bc13772
Encoding settings : cabac=1 / ref=9 / deblock=1:-3:-3 / analyse=0x3:0x113 / me=umh / subme=10 / psy=1 / psy_rd=1.00:0.10 / mixed_ref=1 / me_range=32 / chroma_me=1 / trellis=2 / 8x8dct=1 / cqm=0 / deadzone=21,11 / fast_pskip=0 / chroma_qp_offset=-3 / threads=6 / lookahead_threads=1 / sliced_threads=0 / nr=0 / decimate=0 / interlaced=0 / bluray_compat=0 / constrained_intra=0 / bframes=5 / b_pyramid=2 / b_adapt=2 / b_bias=0 / direct=3 / weightb=1 / open_gop=0 / weightp=2 / keyint=240 / keyint_min=24 / scenecut=40 / intra_refresh=0 / rc_lookahead=60 / rc=2pass / mbtree=1 / bitrate=2664 / ratetol=1.0 / qcomp=0.60 / qpmin=0 / qpmax=51 / qpstep=4 / cplxblur=20.0 / qblur=0.5 / ip_ratio=1.40 / aq=1:1.00
Language : English
Default : Yes
Forced : No

Audio
ID : 2
Format : AC-3
Format/Info : Audio Coding 3
Mode extension : CM (complete main)
Format settings, Endianness : Big
Codec ID : A_AC3
Duration : 1h 42mn
Bit rate mode : Constant
Bit rate : 384 Kbps
Channel(s) : 6 channels
Channel positions : Front: L C R, Side: L R, LFE
Sampling rate : 48.0 KHz
Bit depth : 16 bits
Compression mode : Lossy
Stream size : 281 MiB (13%)
Title : Дублированный
Language : Russian
Default : Yes
Forced : No

Text
ID : 3
Format : UTF-8
Codec ID : S_TEXT/UTF8
Codec ID/Info : UTF-8 Plain Text
Title : Русские полные
Language : Russian
Default : No
Forced : No


Релиз Группа | Автор Рипа:



   Похожие торренты   Торрент   Размер 
В этой теме нет новых непрочитанных сообщений. Слова / The Words (2012) BDRip 1080p от NoLimits-Team

13 | 3

7.95 ГБ

В этой теме нет новых непрочитанных сообщений. Слова / The Words (2012) BDRip 720p

22 | 2

4.37 ГБ

В этой теме нет новых непрочитанных сообщений. Слова / The Words (2012) BDRip 720p | EXTENDED | Лицензия

23 | 5

8.32 ГБ

В этой теме нет новых непрочитанных сообщений. Слова / The Words (2012) BDRip 720p | EXTENDED | Лицензия

6 | 3

2.57 ГБ

В этой теме нет новых непрочитанных сообщений. Слова / The Words (2012) BDRip 720p от Leonardo | Extended Cut | Лицензия

153 | 15

4.42 ГБ

В этой теме нет новых непрочитанных сообщений. Плохие слова / Bad Words (2013) BDRip-AVC от New-Team | D | Лицензия

393 | 79

1.45 ГБ

В этой теме нет новых непрочитанных сообщений. Не говори ни слова / Don't Say a Word (2001) BDRip 720p от NOLIMITS-TEAM

3 | 3

2.23 ГБ




Вы не можете начинать темы
Вы не можете отвечать на сообщения
Вы не можете редактировать свои сообщения
Вы не можете удалять свои сообщения
Вы не можете добавлять вложения

Перейти:  
Для Мосгорсуда, Роскомнадзора и рекламодателей: mosgorsud-torrent[собачка]yandex.ru
 Вход
ppkBB3cker v.2 © 2008-2014 @ PPK
[ Time : 0.041s | 18 Queries | GZIP : Off ]

cron