img image001 image001 image001 image001 image001 image001 image001 image001 image001 image001 image001 image001 image001 image001 image001

Planets Sun Sun Sun
Статистика раздачи
Автор: Снежана | Размер: 7.77 ГБ | Добавлен: 23 июл 2013
Раздают: 89    Качают: 6
Скачать торрент
Скачать торрент
Описание торрента

СообщениеДобавлено: 23 июл 2013 

#77

Информация о фильме
Название: Прощай, детка, прощай
Оригинальное название: Gone Baby Gone
Год выхода: 2007
Жанр: триллер, драма, криминал, детектив
Режиссер: Бен Аффлек
В ролях: Кейси Аффлек, Мишель Монахэн, Морган Фриман, Эд Харрис, Эми Райан, Джон Эштон, Эми Мэдиган, Титус Уэлливер, Майкл К. Уильямс, Эди Гатеги

О фильме: В пригороде Бостона без вести пропадает четырехлетняя Аманда МакКриди. Когда официальные власти прекращают попытки найти исчезнувшую девочку, ее тетя упрашивает двух частных детективов, Патрика Кензи и Анджелу Дженнаро, начать расследование.

Поначалу они не торопятся взяться за безнадежное дело, однако новые обстоятельства заставляют их поставить на кон не только собственные профессиональные репутации, но и жизни.



Выпущено: Miramax Films
Продолжительность: 01:53:55
Перевод: Многоголосый закадровый (Видеосервис, Киномания) + Авторский (В.Королев)

Файл
Кодек: x264
Качество: BDRip (источник: Blu-ray Disc)
Видео: 1920x1040 (16:9), 23.976 fps, 7455 kbps
Аудио #1: AC-3, 6 ch, 384 kbps (Многоголосый закадровый, Видеосервис)
Аудио #2: AC-3, 6 ch, 640 kbps (Многоголосый закадровый, Киномания)
Аудио #3: AC-3, 6 ch, 640 kbps (Одноголосый закадровый, В.Королев)
Аудио #4: AC-3, 6 ch, 640 kbps (Original)
Субтитры: Русские, Английские
Скачать: сэмпл

Скриншоты

Общее
Уникальный идентификатор : 185826382266507761957295665297274154653 (0x8BCCDC020F2AF841BEE0C7176DE3AE9D)
Полное имя : Gone.Baby.Gone.2007.BDRip.1080p.Rus.Eng.mkv
Формат : Matroska
Версия формата : Version 2
Размер файла : 7,77 Гбайт
Продолжительность : 1 ч. 53 м.
Общий поток : 9759 Кбит/сек
Название фильма : Прощай, детка, прощай / Gone Baby Gone (2007)
Дата кодирования : UTC 2013-03-13 14:44:17
Программа кодирования : mkvmerge v5.8.0 ('No Sleep / Pillow') built on Sep 2 2012 15:37:04
Библиотека кодирования : libebml v1.2.3 + libmatroska v1.3.0

Видео
Идентификатор : 1
Формат : AVC
Формат/Информация : Advanced Video Codec
Профиль формата : High@L4.1
Параметр CABAC формата : Да
Параметр ReFrames формата : 4 кадра
Идентификатор кодека : V_MPEG4/ISO/AVC
Продолжительность : 1 ч. 53 м.
Битрейт : 7455 Кбит/сек
Ширина : 1920 пикселей
Высота : 1040 пикселей
Соотношение сторон : 16:9
Частота кадров : 23,976 кадра/сек
Цветовое пространство : YUV
Субдискретизация насыщенности : 4:2:0
Битовая глубина : 8 бит
Тип развёртки : Прогрессивная
Бит/(Пиксели*Кадры) : 0.156
Размер потока : 5,78 Гбайт (74%)
Заголовок : Release by AlexKa
Библиотека кодирования : x264 core 130 r2273 b3065e6
Настройки программы : cabac=1 / ref=4 / deblock=1:-3:-3 / analyse=0x3:0x133 / me=umh / subme=9 / psy=1 / psy_rd=1.00:0.10 / mixed_ref=1 / me_range=32 / chroma_me=1 / trellis=2 / 8x8dct=1 / cqm=0 / deadzone=21,11 / fast_pskip=0 / chroma_qp_offset=-3 / threads=12 / lookahead_threads=1 / sliced_threads=0 / nr=0 / decimate=1 / interlaced=0 / bluray_compat=0 / constrained_intra=0 / bframes=6 / b_pyramid=2 / b_adapt=2 / b_bias=0 / direct=3 / weightb=1 / open_gop=0 / weightp=2 / keyint=240 / keyint_min=23 / scenecut=40 / intra_refresh=0 / rc=2pass / mbtree=0 / bitrate=7455 / ratetol=1.0 / qcomp=0.60 / qpmin=0 / qpmax=69 / qpstep=4 / cplxblur=20.0 / qblur=0.5 / ip_ratio=1.40 / pb_ratio=1.30 / aq=1:0.80
Язык : English

Аудио #1
Идентификатор : 2
Формат : AC-3
Формат/Информация : Audio Coding 3
Расширение режима : CM (complete main)
Идентификатор кодека : A_AC3
Продолжительность : 1 ч. 53 м.
Вид битрейта : Постоянный
Битрейт : 384 Кбит/сек
Каналы : 6 каналов
Расположение каналов : Front: L C R, Side: L R, LFE
Частота : 48,0 КГц
Битовая глубина : 16 бит
Метод сжатия : С потерями
Размер потока : 313 Мбайт (4%)
Заголовок : Многоголосый закадровый, Видеосервис
Язык : Russian

Аудио #2
Идентификатор : 3
Формат : AC-3
Формат/Информация : Audio Coding 3
Расширение режима : CM (complete main)
Идентификатор кодека : A_AC3
Продолжительность : 1 ч. 53 м.
Вид битрейта : Постоянный
Битрейт : 640 Кбит/сек
Каналы : 6 каналов
Расположение каналов : Front: L C R, Side: L R, LFE
Частота : 48,0 КГц
Битовая глубина : 16 бит
Метод сжатия : С потерями
Размер потока : 522 Мбайт (7%)
Заголовок : Многоголосый закадровый, Киномания
Язык : Russian

Аудио #3
Идентификатор : 4
Формат : AC-3
Формат/Информация : Audio Coding 3
Расширение режима : CM (complete main)
Идентификатор кодека : A_AC3
Продолжительность : 1 ч. 53 м.
Вид битрейта : Постоянный
Битрейт : 640 Кбит/сек
Каналы : 6 каналов
Расположение каналов : Front: L C R, Side: L R, LFE
Частота : 48,0 КГц
Битовая глубина : 16 бит
Метод сжатия : С потерями
Размер потока : 522 Мбайт (7%)
Заголовок : Одноголосый закадровый, В.Королев
Язык : Russian

Аудио #4
Идентификатор : 5
Формат : AC-3
Формат/Информация : Audio Coding 3
Расширение режима : CM (complete main)
Идентификатор кодека : A_AC3
Продолжительность : 1 ч. 53 м.
Вид битрейта : Постоянный
Битрейт : 640 Кбит/сек
Каналы : 6 каналов
Расположение каналов : Front: L C R, Side: L R, LFE
Частота : 48,0 КГц
Битовая глубина : 16 бит
Метод сжатия : С потерями
Размер потока : 522 Мбайт (7%)
Заголовок : Original
Язык : English

Текст #1
Идентификатор : 6
Формат : UTF-8
Идентификатор кодека : S_TEXT/UTF8
Идентификатор кодека/Информация : UTF-8 Plain Text
Заголовок : Rus
Язык : Russian

Текст #2
Идентификатор : 7
Формат : UTF-8
Идентификатор кодека : S_TEXT/UTF8
Идентификатор кодека/Информация : UTF-8 Plain Text
Заголовок : Eng
Язык : English

Меню
00:00:00.000 : :Chapter 01
00:05:22.486 : :Chapter 02
00:10:05.104 : :Chapter 03
00:16:28.445 : :Chapter 04
00:20:51.750 : :Chapter 05
00:25:30.693 : :Chapter 06
00:30:31.871 : :Chapter 07
00:35:47.143 : :Chapter 08
00:37:11.061 : :Chapter 09
00:44:31.876 : :Chapter 10
00:52:06.623 : :Chapter 11
00:56:24.713 : :Chapter 12
01:02:16.356 : :Chapter 13
01:08:44.036 : :Chapter 14
01:13:31.323 : :Chapter 15
01:19:15.332 : :Chapter 16
01:27:00.965 : :Chapter 17
01:31:03.332 : :Chapter 18
01:39:31.465 : :Chapter 19
01:44:09.783 : :Chapter 20
01:49:06.081 : :Chapter 21
x264 [info]: frame I:1089 Avg QP:18.73 size:174353
x264 [info]: frame P:31673 Avg QP:21.19 size: 69594
x264 [info]: frame B:131125 Avg QP:23.29 size: 30300



   Похожие торренты   Торрент   Размер 
В этой теме нет новых непрочитанных сообщений. Прощай, детка, прощай / Gone Baby Gone (2007) BDRip 720p от NNNB | P,A

114 | 8

5.75 ГБ

В этой теме нет новых непрочитанных сообщений. Прощай, детка, прощай / Gone Baby Gone (2007) BDRip от HQCLUB

32 | 5

2.18 ГБ

В этой теме нет новых непрочитанных сообщений. Прощай, детка, прощай / Gone Baby Gone (2007) BDRip-AVC | P

56 | 9

2.76 ГБ

В этой теме нет новых непрочитанных сообщений. Прощай, детка, прощай / Gone Baby Gone (2007) HDRip от Scarabey

70 | 7

746.73 МБ

В этой теме нет новых непрочитанных сообщений. Прощай, детка, прощай / Gone Baby Gone (2007) HDRip от Scarabey

174 | 24

1.45 ГБ

В этой теме нет новых непрочитанных сообщений. Детка, детка, детка / Baby, Baby, Baby (2015) WEB-DLRip от MegaPeer | iTunes

17 | 0

745.79 МБ

В этой теме нет новых непрочитанных сообщений. Детка, детка, детка / Baby, Baby, Baby (2015) WEB-DLRip от MegaPeer | iTunes

70 | 1

1.46 ГБ




Вы не можете начинать темы
Вы не можете отвечать на сообщения
Вы не можете редактировать свои сообщения
Вы не можете удалять свои сообщения
Вы не можете добавлять вложения

Перейти:  
Для Мосгорсуда, Роскомнадзора и рекламодателей: mosgorsud-torrent[собачка]yandex.ru
 Вход
ppkBB3cker v.2 © 2008-2014 @ PPK
[ Time : 0.032s | 18 Queries | GZIP : Off ]

cron