img image001 image001 image001 image001 image001 image001 image001 image001 image001 image001 image001 image001 image001 image001 image001 image001

Planets Sun Sun Sun
Статистика раздачи
Автор: Снежана | Размер: 1.46 ГБ | Добавлен: 23 июл 2013
Раздают: 6    Качают: 1
Скачать торрент
Скачать торрент
Описание торрента

СообщениеДобавлено: 23 июл 2013 

#77
Страна: Франция
Производство: Canal+ [fr], Centre National de la Cinématographie (CNC), Hirsch, Pathé Renn Productions, TF1 Films Production
Жанр: драма, комедия
Год выпуска: 2005
Продолжительность: 1:34:04

Перевод: Профессиональный (многоголосый, закадровый)
Оригинальная аудиодорожка: французкий
Cубтитры: нет

Режиссер: Клод Берри / Claude Berri

В ролях: Шарлотта Генсбур, Даниель Отой, Натали Бэй, Пьер Ардити, Миу-Миу, Лор Дютийёль, Айсса Майга, Ноэми Львовски, Николас Лебовичи, Николас Шойе...

Описание:
Парижские антиквары Даниэль и Ален женаты почти двадцать лет. И вот, устав от однообразия семейной жизни, друзья отправляются на поиски приключений. Даниэль знакомится с утончённой и романтичной Жудит, а Ален влюбляется в знойную красавицу Фариду.
Дело зашло так далеко, что ради новых возлюбленных друзья готовы даже расстаться с жёнами. Наступает момент, когда любовь, страсть и… чувство вины заставляют Даниэля и Алена разрешить сомнения и изменить свою жизнь.
Остаться или уйти? Каждый должен сделать свой выбор...





Исходник: DVD5 R5
Тип релиза: DVDRip
Контейнер: AVI

Видео: 704x304 (2,35:1), 25 fps, XviD ~ 1440 kbps avg, 0.269 bit/pixel
Аудио: 48 kHz, Dolby AC3 5.1, 384 kbps Русский
Аудио: 48 kHz, Dolby AC3 5.1, 384 kbps Французский

Раздача от:
Общее
Полное имя : Odin.uhodit–drugoj.ostaetsja.2005.DVDRip_[Youtracker]_by_AVP Studio.avi
Формат : AVI
Формат/Информация : Audio Video Interleave
Размер файла : 1,46 Гбайт
Продолжительность : 1 ч. 34 м.
Общий поток : 2222 Кбит/сек
Программа кодирования : VirtualDubModRus 1.5.10.2 (build 2542/release)
Библиотека кодирования : VirtualDubMod build 2542/release

Видео
Идентификатор : 0
Формат : MPEG-4 Visual
Профиль формата : Advanced Simple@L5
Параметр BVOP формата : 1
Параметр QPel формата : Нет
Параметр GMC формата : Без точки перехода
Параметр матрицы формата : Выборочная
Идентификатор кодека : XVID
Идентификатор кодека/Подсказка : XviD
Продолжительность : 1 ч. 34 м.
Битрейт : 1440 Кбит/сек
Ширина : 704 пикселя
Высота : 304 пикселя
Соотношение сторон : 2,35:1
Частота кадров : 25,000 кадров/сек
Цветовое пространство : YUV
Субдискретизация насыщенности : 4:2:0
Битовая глубина : 8 бит
Тип развёртки : Прогрессивная
Метод сжатия : С потерями
Бит/(Пиксели*Кадры) : 0.269
Размер потока : 969 Мбайт (65%)
Библиотека кодирования : XviD 65

Аудио #1
Идентификатор : 1
Формат : AC-3
Формат/Информация : Audio Coding 3
Расширение режима : CM (complete main)
Идентификатор кодека : 2000
Продолжительность : 1 ч. 34 м.
Вид битрейта : Постоянный
Битрейт : 384 Кбит/сек
Каналы : 6 каналов
Расположение каналов : Front: L C R, Side: L R, LFE
Частота : 48,0 КГц
Битовая глубина : 16 бит
Метод сжатия : С потерями
Размер потока : 258 Мбайт (17%)
Выравнивание : Разделение по промежуткам
Продолжительность промежутка : 40 мс. (1,00 видеокадр)
Время предзагрузки промежутка : 500 мс.

Аудио #2
Идентификатор : 2
Формат : AC-3
Формат/Информация : Audio Coding 3
Расширение режима : CM (complete main)
Идентификатор кодека : 2000
Продолжительность : 1 ч. 34 м.
Вид битрейта : Постоянный
Битрейт : 384 Кбит/сек
Каналы : 6 каналов
Расположение каналов : Front: L C R, Side: L R, LFE
Частота : 48,0 КГц
Битовая глубина : 16 бит
Метод сжатия : С потерями
Размер потока : 258 Мбайт (17%)
Выравнивание : Разделение по промежуткам
Продолжительность промежутка : 40 мс. (1,00 видеокадр)
Время предзагрузки промежутка : 500 мс





   Похожие торренты   Торрент   Размер 
В этой теме нет новых непрочитанных сообщений. Один уходит - другой остается / L'un reste, l'autre part (2005) DVDRip от Youtracker

7 | 1

745.13 МБ

В этой теме нет новых непрочитанных сообщений. Один уходит - другой остается / L'un reste, l'autre part (2005) DVDRip-AVC от Youtracker

4 | 1

1.46 ГБ

В этой теме нет новых непрочитанных сообщений. Один уходит - другой остается / L'un reste, l'autre part (2005) DVDRip от Scarabey | P

33 | 2

743.79 МБ

В этой теме нет новых непрочитанных сообщений. Один уходит - другой остается / Сухой остаток / L'un reste, l'autre part (2005) DVDRip от Scarabey | P

30 | 7

1.44 ГБ

В этой теме нет новых непрочитанных сообщений. Еще один мужчина, еще один шанс / Un autre homme, une autre chance (1977) DVDRip

35 | 6

2.04 ГБ

В этой теме нет новых непрочитанных сообщений. Это не я, это другой / C'est pas moi, c'est l'autre (2004) DVDRip от Хихидок

0 | 1

1.42 ГБ

В этой теме нет новых непрочитанных сообщений. Это не я, это другой / C'est pas moi, c'est l'autre (2004) DVDRip от Хихидок

6 | 1

696.98 МБ




Вы не можете начинать темы
Вы не можете отвечать на сообщения
Вы не можете редактировать свои сообщения
Вы не можете удалять свои сообщения
Вы не можете добавлять вложения

Перейти:  
 Вход
ppkBB3cker v.2 © 2008-2014 @ PPK
[ Time : 0.033s | 17 Queries | GZIP : Off ]

cron