img image001 image001 image001 image001 image001 image001 image001 image001 image001 image001 image001 image001 image001 image001 image001

Planets Sun Sun Sun
Статистика раздачи
Автор: Снежана | Размер: 4.37 ГБ | Добавлен: 23 июл 2013
Раздают: 92    Качают: 4
Скачать торрент
Скачать торрент
Описание торрента

СообщениеДобавлено: 23 июл 2013 

#77

Жизнь Пи / Life of Pi (2012) BDRip 720p от NoLimits-Team


Информация о фильме
Название: Жизнь Пи
Оригинальное название: Life of Pi
Год выхода: 2012
Жанр: Драма, Приключения.
Режиссер: Энг Ли
В ролях: Сурадж Шарма, Ирфан Кхан, Рейф Сполл, Табу, Адиль Хуссэйн, Жерар Депардье, Аюш Тандон, Гаутам Белур, Аян Кхан, Мохд Аббас Халили ...

Сюжет фильма: Главный герой фильма оказывается на шлюпке посреди океана в компании неожиданного попутчика — грозного бенгальского тигра.

«Поверь в невозможное»


Выпущено: США, Тайвань.
Продолжительность: 02:07:00
Перевод: Дублированный
Субтитры: Russian(Full),(Force)

Файл
Качество: BDRip 720p (исходник Blu-ray Disc)
Видео: 1280x692, 4288 Кбит/сек, 23.976 кадр/сек, AVC, x264, 1.85:1, 0.202 Бит/(Пиксели*Кадры)
Аудио: AC-3, 640 Кбит/сек, 6 канала(ов), 48,0 КГц
Отдельно на Яндекс диск:
Аудио: AC-3, 448 Кбит/сек, 6 канала(ов), 48,0 КГц (Украинский дубляж)
Аудио: AC-3, 640 Кбит/сек, 6 канала(ов), 48,0 КГц (Оригинальная Английская Дорожка)
Аудио (SOUNDTRACK/OST): MP3, 320(CBR) Кбит/сек, 44.1 КГц Саунтрек
Чаптеры: Есть
Размер: 4.37 Гб





Релиз Группа | Автор Рипа:
Бюджет Фильма: $120 000 000
Кассовые сборы: $603 683 622 (24.3.13)






Format : Matroska
Format version : Version 4 / Version 2
File size : 4.37 GiB
Duration : 2h 6mn
Overall bit rate : 4 928 Kbps
Movie name : Жизнь Пи.(2012).BDRip.720p.DVD5.[NoLimits-Team]
Encoded date : UTC 2013-03-24 13:13:58
Writing application : mkvmerge v6.1.0 ('Old Devil') built on Mar 2 2013 14:32:37
Writing library : libebml v1.3.0 + libmatroska v1.4.0

Video
ID : 1
Format : AVC
Format/Info : Advanced Video Codec
Format profile : High@L4.1
Format settings, CABAC : Yes
Format settings, ReFrames : 9 frames
Codec ID : V_MPEG4/ISO/AVC
Duration : 2h 6mn
Bit rate : 4 288 Kbps
Width : 1 280 pixels
Height : 692 pixels
Display aspect ratio : 1.85:1
Frame rate mode : Constant
Frame rate : 23.976 fps
Color space : YUV
Chroma subsampling : 4:2:0
Bit depth : 8 bits
Scan type : Progressive
Bits/(Pixel*Frame) : 0.202
Stream size : 3.72 GiB (85%)
Title : Жизнь Пи / Life of Pi (2012) BDRip 720p DVD5 от NoLimits-Team
Writing library : x264 core 130 r2273 b3065e6
Encoding settings : cabac=1 / ref=9 / deblock=1:0:0 / analyse=0x3:0x113 / me=umh / subme=11 / psy=1 / psy_rd=1.00:0.00 / mixed_ref=1 / me_range=64 / chroma_me=1 / trellis=2 / 8x8dct=1 / cqm=0 / deadzone=21,11 / fast_pskip=0 / chroma_qp_offset=-2 / threads=12 / lookahead_threads=1 / sliced_threads=0 / nr=0 / decimate=0 / interlaced=0 / bluray_compat=0 / constrained_intra=0 / bframes=6 / b_pyramid=2 / b_adapt=2 / b_bias=0 / direct=3 / weightb=1 / open_gop=0 / weightp=2 / keyint=240 / keyint_min=24 / scenecut=40 / intra_refresh=0 / rc_lookahead=60 / rc=2pass / mbtree=1 / bitrate=4288 / ratetol=1.3 / qcomp=0.70 / qpmin=0 / qpmax=51 / qpstep=4 / cplxblur=20.0 / qblur=0.5 / ip_ratio=1.40 / aq=1:1.00
Language : Russian
Default : Yes
Forced : No

Audio
ID : 2
Format : AC-3
Format/Info : Audio Coding 3
Mode extension : CM (complete main)
Format settings, Endianness : Big
Codec ID : A_AC3
Duration : 2h 6mn
Bit rate mode : Constant
Bit rate : 640 Kbps
Channel(s) : 6 channels
Channel positions : Front: L C R, Side: L R, LFE
Sampling rate : 48.0 KHz
Bit depth : 16 bits
Compression mode : Lossy
Stream size : 581 MiB (13%)
Title : Дублированный
Language : Russian
Default : Yes
Forced : No

Text #1
ID : 3
Format : UTF-8
Codec ID : S_TEXT/UTF8
Codec ID/Info : UTF-8 Plain Text
Title : Russian(Force)
Language : Russian
Default : Yes
Forced : Yes

Text #2
ID : 4
Format : UTF-8
Codec ID : S_TEXT/UTF8
Codec ID/Info : UTF-8 Plain Text
Title : Russian(Full)
Language : Russian
Default : No
Forced : No

Menu
00:00:00.000 : en:00:00:00.000
00:03:58.822 : en:00:03:58.822
00:11:13.172 : en:00:11:13.172
00:15:24.924 : en:00:15:24.924
00:21:29.622 : en:00:21:29.622
00:25:44.543 : en:00:25:44.543
00:29:46.827 : en:00:29:46.827
00:31:31.014 : en:00:31:31.014
00:35:34.299 : en:00:35:34.299
00:45:24.347 : en:00:45:24.347
00:50:21.894 : en:00:50:21.894
00:54:13.333 : en:00:54:13.333
00:57:18.352 : en:00:57:18.352
01:00:07.395 : en:01:00:07.395
01:04:12.057 : en:01:04:12.057
01:09:32.085 : en:01:09:32.085
01:11:48.054 : en:01:11:48.054
01:13:34.285 : en:01:13:34.285
01:16:47.561 : en:01:16:47.561
01:21:31.178 : en:01:21:31.178
01:23:10.027 : en:01:23:10.027
01:26:30.852 : en:01:26:30.852
01:31:21.434 : en:01:31:21.434
01:34:13.857 : en:01:34:13.857
01:43:42.675 : en:01:43:42.675
01:47:38.661 : en:01:47:38.661
01:55:20.080 : en:01:55:20.080
01:59:16.274 : en:01:59:16.274



   Похожие торренты   Торрент   Размер 
В этой теме нет новых непрочитанных сообщений. Жизнь, как она есть / Life as We Know It (2010) BDRip 720p от NOLIMITS-TEAM

4 | 1

2.01 ГБ

В этой теме нет новых непрочитанных сообщений. Жизнь за гранью / After.Life (2009) BDRip 720p от NOLIMITS-TEAM

30 | 3

2.19 ГБ

В этой теме нет новых непрочитанных сообщений. Эта замечательная жизнь / It's a Wonderful Life (1946) BDRip 720p от NOLIMITS-TEAM

10 | 2

2.22 ГБ

В этой теме нет новых непрочитанных сообщений. Жизнь прекрасна / La vita e bella (1997) BDRip 720p от NOLIMITS-TEAM

98 | 21

2.23 ГБ

В этой теме нет новых непрочитанных сообщений. Двойная жизнь Вероники / La double vie de Veronique (1991) BDRip 720p от NOLIMITS-TEAM

6 | 2

2.21 ГБ

В этой теме нет новых непрочитанных сообщений. Двойная жизнь Чарли Сан-Клауда / Charlie St. Cloud (2010) BDRip 720p от NOLIMITS-TEAM

1 | 1

2.19 ГБ

В этой теме нет новых непрочитанных сообщений. Двойная жизнь Чарли Сан-Клауда / Charlie St. Cloud (2010) BDRip 720p от NOLIMITS-TEAM

11 | 3

2.21 ГБ




Вы не можете начинать темы
Вы не можете отвечать на сообщения
Вы не можете редактировать свои сообщения
Вы не можете удалять свои сообщения
Вы не можете добавлять вложения

Перейти:  
Для Мосгорсуда, Роскомнадзора и рекламодателей: mosgorsud-torrent[собачка]yandex.ru
 Вход
ppkBB3cker v.2 © 2008-2014 @ PPK
[ Time : 0.043s | 18 Queries | GZIP : Off ]

cron