img image001 image001 image001 image001 image001 image001 image001 image001 image001 image001 image001 image001 image001 image001 image001 image001

Planets Sun Sun Sun
Статистика раздачи
Автор: Снежана | Размер: 11.5 ГБ | Добавлен: 23 июл 2013
Раздают: 285    Качают: 11
Скачать торрент
Скачать торрент
Описание торрента

СообщениеДобавлено: 23 июл 2013 

#77

Информация о фильме
Название: Война миров
Оригинальное название: War of the Worlds
Год выхода: 2005
Жанр: Фантастика, боевик, триллер, драма, приключения
Режиссер: Стивен Спилберг
В ролях: Том Круз, Дакота Фаннинг, Миранда Отто, Джастин Чэтвин, Тим Роббинс, Рик Гонсалес, Юл Васкез, Ленни Венито, Лиза Энн Уолтер, Энн Робинсон

О фильме:
Никто не поверил бы в начале 21 столетия, что за всем происходящим на Земле зорко и внимательно следят существа более развитые, чем человек; что в то время, как люди занимались своими делами, их исследовали и изучали.
С бесконечным самодовольством сновали люди по всему земному шару, занятые своими делишками, уверенные в своей власти над материей. А между тем через бездну пространства на Землю смотрели глазами полными зависти, существа с высокоразвитым, холодным, бесчувственным интеллектом, и медленно, но верно вырабатывали свои враждебные нам планы…



Страна: США
Студия: Paramount Pictures, DreamWorks SKG, Amblin Entertainment, Cruise/Wagner Productions
Продолжительность: 01:56:33
Перевод: Дублированный + Профессиональный (двухголосый, закадровый) Тусооn-Studiо + Авторский (одноголосый, закадровый) Андрей Гаврилов + Оригинал

Файл
Кодек: x264
Качество: BDRip 1080p (источник: HDCLUB / Blu-ray Remux / 1080p)
Видео: 1920х1040 (1.85:1), 11574 Kbps, 23.976 fps, 0.242 bit/pixel
Аудио #1: 48.0 kHz, AC3 Dolby Digital, 3/2 (L,C,R,l,r) + LFE ch, 640 kbps [Дубляж]
Аудио #2: 48.0 kHz, AC3 Dolby Digital, 3/2 (L,C,R,l,r) + LFE ch, 640 kbps [Двухголосый, Тусооn-Studiо]
Аудио #3: 48.0 kHz, AC3 Dolby Digital, 3/2 (L,C,R,l,r) + LFE ch, 640 kbps [Авторский, А. Гаврилов]
Аудио #4: 48.0 kHz, AC3 Dolby Digital, 3/2 (L,C,R,l,r) + LFE ch, 640 kbps [Английский]
Субтитры: Русские, русские [Тусооn-Studiо], английские

Семпл



x264 [info]: frame I:1036 Avg QP:21.74 size:156488
x264 [info]: frame P:55552 Avg QP:24.72 size: 76887
x264 [info]: frame B:111076 Avg QP:26.44 size: 51101
General
Unique ID : 212195158201272567429785441290194001915 (0x9FA34D09509341A7A6A9D3BF74E41FFB)
Complete name : E:War.of. the.Worlds.2005.x264.BDRip.1080p.mkv
Format : Matroska
Format version : Version 4 / Version 2
File size : 11.5 GiB
Duration : 1h 56mn
Overall bit rate : 14.1 Mbps
Encoded date : UTC 2013-04-07 07:15:56
Writing application : mkvmerge v6.1.0 ('Old Devil') built on Mar 2 2013 14:32:37
Writing library : libebml v1.3.0 + libmatroska v1.4.0

Video
ID : 1
Format : AVC
Format/Info : Advanced Video Codec
Format profile : High@L4.1
Format settings, CABAC : Yes
Format settings, ReFrames : 4 frames
Codec ID : V_MPEG4/ISO/AVC
Duration : 1h 56mn
Bit rate : 11.6 Mbps
Width : 1 920 pixels
Height : 1 040 pixels
Display aspect ratio : 1.85:1
Frame rate mode : Constant
Frame rate : 23.976 fps
Color space : YUV
Chroma subsampling : 4:2:0
Bit depth : 8 bits
Scan type : Progressive
Bits/(Pixel*Frame) : 0.242
Stream size : 9.19 GiB (80%)
Writing library : x264 core 130 r2273 b3065e6
Encoding settings : cabac=1 / ref=4 / deblock=1:0:0 / analyse=0x3:0x133 / me=tesa / subme=11 / psy=1 / psy_rd=1.00:0.02 / mixed_ref=1 / me_range=32 / chroma_me=1 / trellis=2 / 8x8dct=1 / cqm=0 / deadzone=21,11 / fast_pskip=0 / chroma_qp_offset=-3 / threads=12 / lookahead_threads=1 / sliced_threads=0 / nr=0 / decimate=0 / interlaced=0 / bluray_compat=0 / constrained_intra=0 / bframes=3 / b_pyramid=2 / b_adapt=2 / b_bias=0 / direct=3 / weightb=1 / open_gop=0 / weightp=2 / keyint=240 / keyint_min=23 / scenecut=40 / intra_refresh=0 / rc_lookahead=60 / rc=2pass / mbtree=1 / bitrate=11574 / ratetol=1.0 / qcomp=0.60 / qpmin=0 / qpmax=69 / qpstep=4 / cplxblur=20.0 / qblur=0.5 / ip_ratio=1.40 / aq=1:1.00
Language : English
Default : Yes
Forced : No

Audio #1
ID : 2
Format : AC-3
Format/Info : Audio Coding 3
Mode extension : CM (complete main)
Format settings, Endianness : Big
Codec ID : A_AC3
Duration : 1h 56mn
Bit rate mode : Constant
Bit rate : 640 Kbps
Channel(s) : 6 channels
Channel positions : Front: L C R, Side: L R, LFE
Sampling rate : 48.0 KHz
Bit depth : 16 bits
Compression mode : Lossy
Stream size : 534 MiB (5%)
Title : AC3 5.1ch 640 kbps - Дубляж
Language : Russian
Default : Yes
Forced : No

Audio #2
ID : 3
Format : AC-3
Format/Info : Audio Coding 3
Mode extension : CM (complete main)
Format settings, Endianness : Big
Codec ID : A_AC3
Duration : 1h 56mn
Bit rate mode : Constant
Bit rate : 640 Kbps
Channel(s) : 6 channels
Channel positions : Front: L C R, Side: L R, LFE
Sampling rate : 48.0 KHz
Bit depth : 16 bits
Compression mode : Lossy
Stream size : 534 MiB (5%)
Title : AC3 5.1ch 640 kbps - Двухголосый, Тусооn-Studiо
Language : Russian
Default : No
Forced : No

Audio #3
ID : 4
Format : AC-3
Format/Info : Audio Coding 3
Mode extension : CM (complete main)
Format settings, Endianness : Big
Codec ID : A_AC3
Duration : 1h 56mn
Bit rate mode : Constant
Bit rate : 640 Kbps
Channel(s) : 6 channels
Channel positions : Front: L C R, Side: L R, LFE
Sampling rate : 48.0 KHz
Bit depth : 16 bits
Compression mode : Lossy
Stream size : 534 MiB (5%)
Title : AC3 5.1ch 640 kbps - Авторский, А. Гаврилов
Language : Russian
Default : No
Forced : No

Audio #4
ID : 5
Format : AC-3
Format/Info : Audio Coding 3
Mode extension : CM (complete main)
Format settings, Endianness : Big
Codec ID : A_AC3
Duration : 1h 56mn
Bit rate mode : Constant
Bit rate : 640 Kbps
Channel(s) : 6 channels
Channel positions : Front: L C R, Side: L R, LFE
Sampling rate : 48.0 KHz
Bit depth : 16 bits
Compression mode : Lossy
Stream size : 534 MiB (5%)
Title : AC3 5.1ch 640 kbps - Английский
Language : English
Default : No
Forced : No

Text #1
ID : 6
Format : UTF-8
Codec ID : S_TEXT/UTF8
Codec ID/Info : UTF-8 Plain Text
Title : Русские
Language : Russian
Default : No
Forced : No

Text #2
ID : 7
Format : UTF-8
Codec ID : S_TEXT/UTF8
Codec ID/Info : UTF-8 Plain Text
Title : Русские [Тусооn-Studiо]
Language : Russian
Default : No
Forced : No

Text #3
ID : 8
Format : UTF-8
Codec ID : S_TEXT/UTF8
Codec ID/Info : UTF-8 Plain Text
Title : Английские
Language : English
Default : No
Forced : No

Menu
00:00:00.000 : en:Earth Under Man
00:04:16.005 : en:Eve of the War
00:08:18.247 : en:Coming of the Invaders
00:13:17.378 : en:In the Storm
00:19:19.867 : en:The Machine Emerges
00:25:29.319 : en:Heat-Ray
00:29:45.241 : en:Escape
00:34:32.570 : en:How We Reached Home
00:38:47.033 : en:At the Window
00:43:53.255 : en:Human Toll
00:49:03.732 : en:Worst of Man
00:55:17.105 : en:Exodus
00:59:21.015 : en:Hudson Ferry
01:04:44.171 : en:The Fighting Begins
01:10:37.232 : en:Harlan Ogilvy
01:15:53.298 : en:Disturbing Revelations
01:20:28.990 : en:Stillness
01:24:47.999 : en:Days of Imprisonment
01:29:03.963 : en:Alone with Harlan
01:33:59.884 : en:Under Foot
01:36:59.604 : en:Earth Under Them
01:41:07.561 : en:In Boston
01:45:27.404 : en:Wreckage
01:49:42.367 : en:End Credits



   Похожие торренты   Торрент   Размер 
В этой теме нет новых непрочитанных сообщений. Война миров / War of the Worlds (2005) BDRip 1080p | 60 fps | D, P2

99 | 29

13.81 ГБ

В этой теме нет новых непрочитанных сообщений. Война миров / War of the Worlds (2005) BDRemux 1080p | D, P, A

17 | 5

36.68 ГБ

В этой теме нет новых непрочитанных сообщений. Война миров / War of the Worlds (2005) BDRip от HQ-ViDEO

280 | 17

2.18 ГБ

В этой теме нет новых непрочитанных сообщений. Война миров / War of the Worlds (2005) BDRip 720p | D, P2, P, A

106 | 13

5.97 ГБ

В этой теме нет новых непрочитанных сообщений. Война миров / War of the Worlds (2005) BDRip 720p от Leonardo | D

335 | 44

4.61 ГБ

В этой теме нет новых непрочитанных сообщений. Война миров / War of the Worlds (2005) HDRip-AVC | D

131 | 12

743.78 МБ

В этой теме нет новых непрочитанных сообщений. Война миров: Голиаф / War of the Worlds: Goliath (2012) BDRip 1080p от Ash61 | 3D-Video | halfOU | L1

86 | 7

4.13 ГБ




Вы не можете начинать темы
Вы не можете отвечать на сообщения
Вы не можете редактировать свои сообщения
Вы не можете удалять свои сообщения
Вы не можете добавлять вложения

Перейти:  
 Вход
ppkBB3cker v.2 © 2008-2014 @ PPK
[ Time : 0.023s | 17 Queries | GZIP : Off ]

cron