img image001 image001 image001 image001 image001 image001 image001 image001 image001 image001 image001 image001 image001 image001 image001 image001

Planets Sun Sun Sun
Статистика раздачи
Автор: Снежана | Размер: 1.06 ГБ | Добавлен: 23 июл 2013
Раздают: 3    Качают: 4
Скачать торрент
Скачать торрент
Описание торрента

СообщениеДобавлено: 23 июл 2013 

Высшая сила

Magnum Force

«Clint Eastwood is Dirty Harry in Magnum Force»


#77

Год выпуска: 1973
Страна: США
Жанр: боевик, триллер, криминал
Продолжительность: 02:02:33
Перевод 1: Профессиональный (многоголосый закадровый)
Перевод 2: Профессиональный (дублированный) Варус Видео | отдельно
Перевод 3: Авторский (одноголосый закадровый) Андрей Гаврилов | отдельно
Оригинальная аудиодорожка: английский | отдельно
Субтитры: русские (srt), английские (srt) | отдельно


Режиссер: Тед Пост / Ted Post

В ролях: Клинт Иствуд, Хэл Холбрук, Митч Райан, Дэвид Соул, Тим Мэтисон, Кип Нивен, Роберт Урих, Фелтон Перри, Морис Аргент, Маргарет Эйвери

Описание: Таинственная волна убийств потрясла весь преступный мир. Один за другим погибают криминальные авторитеты, избежавшие судебного наказания. Им воздается по справедливости, которую одобрил бы своей очаровательной улыбкой полицейский детектив Гарри Кэллэхэн (Клинт Иствуд).






Качество: HDRip [BDRip 1080p]
Формат: AVI

Видео: XviD, 688x288 (2.40:1), 23.976 fps, 713 Kbps, 0.15 Bits/(Pixel*Frame)
Аудио 1: MP3, 48 KHz, 128 Kbps, 2 channels | Профессиональный (многоголосый закадровый)
Аудио 2: MP3, 48 KHz, 128 Kbps, 2 channels | Профессиональный (дублированный) | отдельно
Аудио 3: MP3, 48 KHz, 128 Kbps, 2 channels | Андрей Гаврилов | отдельно
Аудио 4: MP3, 48 KHz, 128 Kbps, 2 channels | английский | отдельно
Субтитры 1: SRT | русские | от RG YouTracker, написал Leo Favorite | отдельно
Субтитры 2: SRT | английские | отдельно

Раздача от:


General
Complete name : D:Grjaznyj.Garri.2.Sila.magnuma.1973.HDRip.XviD.mp3.746mb.YTN.avi
Format : AVI
Format/Info : Audio Video Interleave
File size : 746 MiB
Duration : 2h 2mn
Overall bit rate : 850 Kbps
Writing application : VirtualDubMod 1.5.10.3 | www.virtualdub-fr.org || (build 2550/release)
Writing library : VirtualDubMod build 2550/release

Video
ID : 0
Format : MPEG-4 Visual
Format profile : Advanced Simple@L5
Format settings, BVOP : 1
Format settings, QPel : No
Format settings, GMC : No warppoints
Format settings, Matrix : Custom
Codec ID : XVID
Codec ID/Hint : XviD
Duration : 2h 2mn
Bit rate : 713 Kbps
Width : 688 pixels
Height : 288 pixels
Display aspect ratio : 2.40:1
Frame rate : 23.976 fps
Color space : YUV
Chroma subsampling : 4:2:0
Bit depth : 8 bits
Scan type : Progressive
Compression mode : Lossy
Bits/(Pixel*Frame) : 0.150
Stream size : 625 MiB (84%)
Writing library : XviD 65

Audio
ID : 1
Format : MPEG Audio
Format version : Version 1
Format profile : Layer 3
Mode : Joint stereo
Mode extension : MS Stereo
Codec ID : 55
Codec ID/Hint : MP3
Duration : 2h 2mn
Bit rate mode : Constant
Bit rate : 128 Kbps
Channel(s) : 2 channels
Sampling rate : 48.0 KHz
Compression mode : Lossy
Stream size : 112 MiB (15%)
Alignment : Aligned on interleaves
Interleave, duration : 42 ms (1.00 video frame)
Interleave, preload duration : 504 ms




   Похожие торренты   Торрент   Размер 
В этой теме нет новых непрочитанных сообщений. Грязный Гарри 2: Сила магнума / Высшая сила / Magnum Force (1973) HDRip-AVC от Y.T.N

1 | 2

2.11 ГБ

В этой теме нет новых непрочитанных сообщений. Грязный Гарри 2: Сила магнума / Высшая сила / Magnum Force (1973) HDRip-AVC от Y.T.N

2 | 9

1.05 ГБ

В этой теме нет новых непрочитанных сообщений. Грязный Гарри 2: Сила магнума / Высшая сила / Dirty Harry 2: Magnum Force (1973) BDRip от HQCLUB

21 | 5

2.18 ГБ

В этой теме нет новых непрочитанных сообщений. Грязный Гарри 2: Сила магнума / Dirty Harry 2: Magnum Force (1973) HDRip от Assassin's Creed | КПК

5 | 4

1.04 ГБ

В этой теме нет новых непрочитанных сообщений. Грязный Гарри 2: Сила магнума / Dirty Harry 2: Magnum Force (1973) BDRip от HQ-ViDEO

3 | 4

2.18 ГБ

В этой теме нет новых непрочитанных сообщений. Грязный Гарри 2: Сила магнума / Dirty Harry 2: Magnum Force (1973) BDRip 1080p

3 | 80

7.77 ГБ

В этой теме нет новых непрочитанных сообщений. Грязный Гарри 2: Сила магнума / Dirty Harry 2: Magnum Force (1973) DVDRip от PlanetaUA

1 | 5

1.25 ГБ




Вы не можете начинать темы
Вы не можете отвечать на сообщения
Вы не можете редактировать свои сообщения
Вы не можете удалять свои сообщения
Вы не можете добавлять вложения

Перейти:  
 Вход
ppkBB3cker v.2 © 2008-2014 @ PPK
[ Time : 0.028s | 20 Queries | GZIP : Off ]

cron