img image001 image001 image001 image001 image001 image001 image001 image001 image001 image001 image001 image001 image001 image001 image001 image001

Planets Sun Sun Sun
Статистика раздачи
Автор: Снежана | Размер: 1.37 ГБ | Добавлен: 23 июл 2013
Раздают: 5    Качают: 1
Скачать торрент
Скачать торрент
Описание торрента

СообщениеДобавлено: 23 июл 2013 

#77

Информация о фильме
Оригинальное название: Маскарад
Год выхода: Masquerade
Жанр: Детектив
Режиссер: Бэзил Дирден
В ролях: Клифф Робертсон, Джек Хоукинс, Мариза Мелл, Мишель Пикколи, Билл Фрейзер, Чарльз Грей, Джон Ле Мезюрье, Феликс Эйлмер, Эрнест Кларк, Тутте Лемков
О фильме: Работники министерства иностранных дел Дрексел и Фрэйзер (старые военные приятели, не очень разбирающиеся в вопросах шпионажа) получают задание похитить молодого арабского принца для его собственной защиты до его коронации.

Страна: Великобритания
Студия: Michael Relph Productions
Продолжительность: 01:37:37
Перевод: Профессиональный двухголосый
Субтитры: Нет

Файл
Тип релиза: TVRip
Видео: 704x528 (1.33:1), 25 fps, DivX ~1810 kbps avg, 0.19 bit/pixel
Аудио: 48 kHz, AC3 2.0 ~192.00 kbps avg

Семпл
Общее
Полное имя : D:1АААMaskarad.1965.DivX.TVRip.avi
Формат : AVI
Формат/Информация : Audio Video Interleave
Размер файла : 1,37 Гбайт
Продолжительность : 1 ч. 37 м.
Общий поток : 2013 Кбит/сек
Программа кодирования : VirtualDubMod 1.5.10.2 (build 2540/release)
Библиотека кодирования : VirtualDubMod build 2540/release

Видео
Идентификатор : 0
Формат : MPEG-4 Visual
Параметр BVOP формата : 1
Параметр QPel формата : Нет
Параметр GMC формата : Без точки перехода
Параметр матрицы формата : Default (H.263)
Режим смешивания : Сжатый битовый поток
Идентификатор кодека : DX50
Идентификатор кодека/Подсказка : DivX 5
Продолжительность : 1 ч. 37 м.
Битрейт : 1811 Кбит/сек
Ширина : 704 пикселя
Высота : 528 пикселей
Соотношение сторон : 4:3
Частота кадров : 25,000 кадров/сек
Цветовое пространство : YUV
Субдискретизация насыщенности : 4:2:0
Битовая глубина : 8 бит
Тип развёртки : Прогрессивная
Метод сжатия : С потерями
Бит/(Пиксели*Кадры) : 0.195
Размер потока : 1,23 Гбайт (90%)
Библиотека кодирования : DivX 6.8.5 (UTC 2009-08-20)

Аудио
Идентификатор : 1
Формат : AC-3
Формат/Информация : Audio Coding 3
Расширение режима : CM (complete main)
Параметр Endianness формата : Big
Идентификатор кодека : 2000
Продолжительность : 1 ч. 37 м.
Вид битрейта : Постоянный
Битрейт : 192 Кбит/сек
Каналы : 2 канала
Расположение каналов : Front: L R
Частота : 48,0 КГц
Битовая глубина : 16 бит
Метод сжатия : С потерями
Размер потока : 134 Мбайт (10%)
Выравнивание : Разделение по промежуткам
Продолжительность промежутка : 40 мс. (1,00 видеокадр)
Время предзагрузки промежутка : 500 мс.





   Похожие торренты   Торрент   Размер 
В этой теме нет новых непрочитанных сообщений. Маскарад / Masquerade (1965) DVDRip от Dego | Р2

2 | 0

1.37 ГБ

В этой теме нет новых непрочитанных сообщений. Маскарад / Masquerade (1988) WEB-DL 720p от HDClub

18 | 5

2.93 ГБ

В этой теме нет новых непрочитанных сообщений. Маскарад / Masquerade / Gwanghae: Wangyidoen namja (2012) HDRip от Scarabey | L2

29 | 4

797.52 МБ

В этой теме нет новых непрочитанных сообщений. Расколотый разум: Маскарад. Коллекционное издание / Shattered Minds: Masquerade (2011) PC

10 | 3

287.77 МБ

В этой теме нет новых непрочитанных сообщений. Ангелы тьмы. Маскарад теней / Dark Angel. Masquerade Of Shadows (2013) PC

7 | 1

859.18 МБ

В этой теме нет новых непрочитанных сообщений. Маскарад / Кван Хэ: Человек, ставший королем / Masquerade / Gwanghae, Wangyidoen namja (2012) HDRip | L2

6 | 4

2.05 ГБ

В этой теме нет новых непрочитанных сообщений. Маскарад / Кван Хэ: Человек, ставший королем / Masquerade / Gwanghae, Wangyidoen namja (2012) BDRip-AVC от MediaClub | L2

19 | 12

2.48 ГБ




Вы не можете начинать темы
Вы не можете отвечать на сообщения
Вы не можете редактировать свои сообщения
Вы не можете удалять свои сообщения
Вы не можете добавлять вложения

Перейти:  
 Вход
ppkBB3cker v.2 © 2008-2014 @ PPK
[ Time : 0.047s | 18 Queries | GZIP : Off ]

cron