img image001 image001 image001 image001 image001 image001 image001 image001 image001 image001 image001 image001 image001 image001 image001 image001

Planets Sun Sun Sun
Статистика раздачи
Автор: Снежана | Размер: 6.34 ГБ | Добавлен: 23 июл 2013
Раздают: 6    Качают: 12
Скачать торрент
Скачать торрент
Описание торрента

СообщениеДобавлено: 23 июл 2013 

#77

Информация о фильме
Название: Восстание
Оригинальное название: The Rising: Ballad of Mangal Pandey
Год выхода: 2005
Жанр: Исторический
Режиссер: Кетан Мехта
В ролях: Аамир Кхан, Рани Мукхерджи, Тоби Стивенс, Корал Бид, Амиша Патель, Кирон Кхер, Ом Пури, Бен Нилон
О фильме: Рассказ о человеке, вызвавшем армейский бунт и, как следствие, первую индийскую войну за независимость. В основу истории были положены реальные факты, дошедшие до нас из описаний событий далекого прошлого. Забытый герой Мангал Пандей, чье имя стало символом восстания против британского правления и британский капитан Уильям Гордон - главные герои саги. Воин-брамин Мангал дружил со своим командиром, Уильямом, после того, как спас его жизнь на Афганской войне. Их дружба казалась прочной, пока не произошли события, вызвавшие сражение за независимость..
Страна: Индия, Пакистан
Студия: Kaleidoscope Entertainment Pvt. Ltd., Maya Movies
Продолжительность: 02:24:28
Перевод: Профессиональный многоголосый
Субтитры: Русские



Файл
Кодек: MPEG-2
Качество: DVD-9
Видео: PAL 4:3 (720x576) VBR
Звук: Русский (Dolby AC3, 2 ch), английский (Dolby AC3, 2 ch)



TTitle: Локальный диск
Size: 6.34 Gb ( 6 645 680 KBytes ) - DVD-9
Enabled regions: 1, 2, 3, 4, 5, 6

VTS_01 :
Play Length: 00:00:07
Video: PAL 4:3 (720x576) VBR

VTS_02 :
Play Length: 00:01:33
Video: PAL 4:3 (720x576) VBR
Audio:
Not specified (Dolby AC3, 2 ch)
Not specified (Dolby AC3, 2 ch)
Subtitles:
Not specified

VTS_03 :
Play Length: 00:02:21
Video: PAL 4:3 (720x576) VBR
Audio:
Not specified (Dolby AC3, 2 ch)
Not specified (Dolby AC3, 2 ch)
Subtitles:
Not specified

VTS_04 :
Play Length: 00:02:14
Video: PAL 4:3 (720x576) VBR
Audio:
Not specified (Dolby AC3, 2 ch)
Not specified (Dolby AC3, 2 ch)
Subtitles:
Not specified

VTS_05 :
Play Length: 00:00:16
Video: PAL 4:3 (720x576) VBR
Audio:
Not specified (Dolby AC3, 2 ch)
Not specified (Dolby AC3, 2 ch)
Subtitles:
Not specified

VTS_06 :
Play Length: 02:24:28
Video: PAL 4:3 (720x576) VBR
Audio:
Russian (Dolby AC3, 2 ch)
English (Dolby AC3, 2 ch)
Subtitles:
Russian


Общее
Полное имя : D:1АААVosstanie.2005VIDEO_TSVTS_06_1.VOB
Формат : MPEG-PS
Размер файла : 1024 Мбайт
Продолжительность : 24 м.
Режим общего битрейта : Переменный
Общий поток : 5755 Кбит/сек

Видео
Идентификатор : 224 (0xE0)
Формат : MPEG Video
Версия формата : Version 2
Профиль формата : Main@Main
Параметр BVOP формата : Да
Параметр матрицы формата : Выборочная
Параметр GOP формата : M=3, N=15
Продолжительность : 24 м.
Вид битрейта : Переменный
Битрейт : 5257 Кбит/сек
Максимальный битрейт : 8000 Кбит/сек
Ширина : 720 пикселей
Высота : 576 пикселей
Соотношение сторон : 4:3
Частота кадров : 25,000 кадров/сек
Стандарт вещания : PAL
Цветовое пространство : YUV
Субдискретизация насыщенности : 4:2:0
Битовая глубина : 8 бит
Тип развёртки : Чересстрочная
Порядок развёртки : Верхнее поле первое
Метод сжатия : С потерями
Бит/(Пиксели*Кадры) : 0.507
TimeCode_FirstFrame : 01:00:00:00
TimeCode_Source : Group of pictures header
Размер потока : 935 Мбайт (91%)

Аудио #1
Идентификатор : 189 (0xBD)-128 (0x80)
Формат : AC-3
Формат/Информация : Audio Coding 3
Расширение режима : CM (complete main)
Параметр Endianness формата : Big
Режим смешивания : DVD-Video
Продолжительность : 24 м.
Вид битрейта : Постоянный
Битрейт : 192 Кбит/сек
Каналы : 2 канала
Расположение каналов : Front: L R
Частота : 48,0 КГц
Битовая глубина : 16 бит
Метод сжатия : С потерями
Задержка видео : -80 мс.
Размер потока : 34,2 Мбайт (3%)

Аудио #2
Идентификатор : 189 (0xBD)-129 (0x81)
Формат : AC-3
Формат/Информация : Audio Coding 3
Расширение режима : CM (complete main)
Параметр Endianness формата : Big
Режим смешивания : DVD-Video
Продолжительность : 24 м.
Вид битрейта : Постоянный
Битрейт : 192 Кбит/сек
Каналы : 2 канала
Расположение каналов : Front: L R
Частота : 48,0 КГц
Битовая глубина : 16 бит
Метод сжатия : С потерями
Задержка видео : -80 мс.
Размер потока : 34,2 Мбайт (3%)

Текст
Идентификатор : 189 (0xBD)-32 (0x20)
Формат : RLE
Формат/Информация : Run-length encoding
Режим смешивания : DVD-Video

Меню





   Похожие торренты   Торрент   Размер 
В этой теме нет новых непрочитанных сообщений. Восстание мертвецов / Dead Rising / Zombrex: Dead Rising Sun (2010) DVDRip | L1

71 | 12

1.47 ГБ

В этой теме нет новых непрочитанных сообщений. Восстание тьмы / Darkness Rising (2017) WEB-DLRip | L

345 | 30

1.37 ГБ

В этой теме нет новых непрочитанных сообщений. Восстание Азуреуса / Azureus Rising (2010) HDTVRip

22 | 3

119.22 МБ

В этой теме нет новых непрочитанных сообщений. Звездный крейсер: Восстание / Starship: Rising (2014) DVDRip-AVC | L 1

1794 | 124

1.35 ГБ

В этой теме нет новых непрочитанных сообщений. Восстание варваров / Barbarians Rising [S01] (2016) WEB-DL 720p | BaibaKo

158 | 38

11.5 ГБ

В этой теме нет новых непрочитанных сообщений. Восстание варваров / Barbarians Rising [S01] (2016) WEB-DLRip | BaibaKo

1670 | 216

4.47 ГБ

В этой теме нет новых непрочитанных сообщений. Восстание варваров / Barbarians Rising [S01] (2016) WEB-DL 1080p | BaibaKo

161 | 32

14.13 ГБ




Вы не можете начинать темы
Вы не можете отвечать на сообщения
Вы не можете редактировать свои сообщения
Вы не можете удалять свои сообщения
Вы не можете добавлять вложения

Перейти:  
 Вход
ppkBB3cker v.2 © 2008-2014 @ PPK
[ Time : 0.058s | 18 Queries | GZIP : Off ]

cron