img image001 image001 image001 image001 image001 image001 image001 image001 image001 image001 image001 image001 image001 image001 image001

Planets Sun Sun Sun
Статистика раздачи
Автор: Снежана | Размер: 7.76 ГБ | Добавлен: 23 июл 2013
Раздают: 311    Качают: 31
Скачать торрент
Скачать торрент
Описание торрента

СообщениеДобавлено: 23 июл 2013 

#77

Информация о фильме
Название: Джек Ричер
Оригинальное название: Jack Reacher
Год выхода: 2012
Жанр: боевик, триллер, криминал, детектив
Режиссер: Кристофер МакКуорри
В ролях: Том Круз, Розамунд Пайк, Ричард Дженкинс, Вернер Херцог, Дэвид Ойелоуо, Роберт Дювалл, Джай Кортни, Владимир Сизов, Джозеф Сикора, Майкл Рэймонд-Джеймс

О фильме: Снайпер убивает пять случайных прохожих, но все улики указывают на человека, заключенного под стражу. На допросе подозреваемый умоляет об одном — найти Джека Ричера.



Выпущено: Paramount Pictures
Продолжительность: 02:10:24
Перевод: Дублированный (лицензия)

Файл
Кодек: x264
Качество: BDRip (источник: Blu-ray Disc)
Видео: 1920x816 (2,35:1), 23.976 fps, 7623 kbps
Аудио #1: AC-3, 6 ch, 448 kbps (Rus)
Аудио #2: AC-3, 6 ch, 448 kbps (Eng)
Субтитры: Русские, Английские
Скачать: сэмпл

Скриншоты

Общее
Уникальный идентификатор : 208388097595697007030569221920942241244 (0x9CC61674E7F0C390AD32D03DC138B5DC)
Полное имя : Jack.Reacher.2012.BDRip.1080p.Rus.Eng.mkv
Формат : Matroska
Версия формата : Version 2
Размер файла : 7,76 Гбайт
Продолжительность : 2 ч. 10 м.
Общий поток : 8519 Кбит/сек
Название фильма : Джек Ричер / Jack Reacher (2012)
Дата кодирования : UTC 2013-04-21 21:07:36
Программа кодирования : mkvmerge v5.8.0 ('No Sleep / Pillow') built on Sep 2 2012 15:37:04
Библиотека кодирования : libebml v1.2.3 + libmatroska v1.3.0

Видео
Идентификатор : 1
Формат : AVC
Формат/Информация : Advanced Video Codec
Профиль формата : High@L4.1
Параметр CABAC формата : Да
Параметр ReFrames формата : 5 кадров
Идентификатор кодека : V_MPEG4/ISO/AVC
Продолжительность : 2 ч. 10 м.
Битрейт : 7623 Кбит/сек
Ширина : 1920 пикселей
Высота : 816 пикселей
Соотношение сторон : 2,35:1
Частота кадров : 23,976 кадра/сек
Цветовое пространство : YUV
Субдискретизация насыщенности : 4:2:0
Битовая глубина : 8 бит
Тип развёртки : Прогрессивная
Бит/(Пиксели*Кадры) : 0.203
Размер потока : 6,79 Гбайт (87%)
Заголовок : Release by AlexKa
Библиотека кодирования : x264 core 130 r2273 b3065e6
Настройки программы : cabac=1 / ref=5 / deblock=1:-3:-3 / analyse=0x3:0x133 / me=umh / subme=10 / psy=1 / psy_rd=1.10:0.00 / mixed_ref=1 / me_range=32 / chroma_me=1 / trellis=2 / 8x8dct=1 / cqm=0 / deadzone=21,11 / fast_pskip=0 / chroma_qp_offset=-2 / threads=12 / lookahead_threads=1 / sliced_threads=0 / nr=0 / decimate=0 / interlaced=0 / bluray_compat=0 / constrained_intra=0 / bframes=5 / b_pyramid=2 / b_adapt=2 / b_bias=0 / direct=3 / weightb=1 / open_gop=0 / weightp=2 / keyint=240 / keyint_min=23 / scenecut=40 / intra_refresh=0 / rc=2pass / mbtree=0 / bitrate=7623 / ratetol=1.0 / qcomp=0.60 / qpmin=0 / qpmax=69 / qpstep=4 / cplxblur=20.0 / qblur=0.5 / ip_ratio=1.40 / pb_ratio=1.30 / aq=1:0.80
Язык : English

Аудио #1
Идентификатор : 2
Формат : AC-3
Формат/Информация : Audio Coding 3
Расширение режима : CM (complete main)
Идентификатор кодека : A_AC3
Продолжительность : 2 ч. 10 м.
Вид битрейта : Постоянный
Битрейт : 448 Кбит/сек
Каналы : 6 каналов
Расположение каналов : Front: L C R, Side: L R, LFE
Частота : 48,0 КГц
Битовая глубина : 16 бит
Метод сжатия : С потерями
Размер потока : 418 Мбайт (5%)
Заголовок : Rus
Язык : Russian

Аудио #2
Идентификатор : 3
Формат : AC-3
Формат/Информация : Audio Coding 3
Расширение режима : CM (complete main)
Идентификатор кодека : A_AC3
Продолжительность : 2 ч. 10 м.
Вид битрейта : Постоянный
Битрейт : 448 Кбит/сек
Каналы : 6 каналов
Расположение каналов : Front: L C R, Side: L R, LFE
Частота : 48,0 КГц
Битовая глубина : 16 бит
Метод сжатия : С потерями
Размер потока : 418 Мбайт (5%)
Заголовок : Eng
Язык : English

Текст #1
Идентификатор : 4
Формат : UTF-8
Идентификатор кодека : S_TEXT/UTF8
Идентификатор кодека/Информация : UTF-8 Plain Text
Заголовок : Rus
Язык : Russian

Текст #2
Идентификатор : 5
Формат : UTF-8
Идентификатор кодека : S_TEXT/UTF8
Идентификатор кодека/Информация : UTF-8 Plain Text
Заголовок : Eng
Язык : English

Меню
00:00:00.000 : :Chapter 01
00:08:21.666 : :Chapter 02
00:14:19.900 : :Chapter 03
00:21:51.685 : :Chapter 04
00:30:02.342 : :Chapter 05
00:35:46.477 : :Chapter 06
00:41:22.980 : :Chapter 07
00:49:08.111 : :Chapter 08
00:55:36.291 : :Chapter 09
01:01:44.117 : :Chapter 10
01:08:11.295 : :Chapter 11
01:16:56.320 : :Chapter 12
01:23:51.526 : :Chapter 13
01:30:20.164 : :Chapter 14
01:38:01.584 : :Chapter 15
01:45:08.927 : :Chapter 16
01:53:39.312 : :Chapter 17
02:01:50.469 : :Chapter 18
02:10:24.149 : :Chapter 19
x264 [info]: frame I:1640 Avg QP:16.92 size:172635
x264 [info]: frame P:39498 Avg QP:19.63 size: 72855
x264 [info]: frame B:146460 Avg QP:21.94 size: 29309



   Похожие торренты   Торрент   Размер 
В этой теме нет новых непрочитанных сообщений. Джек Ричер / Jack Reacher (2012) BDRip 1080p от Youtracker | Лицензия

36 | 10

17.34 ГБ

В этой теме нет новых непрочитанных сообщений. Джек Ричер / Jack Reacher (2012) Blu-Ray Remux 1080p | Лицензия

31 | 11

35.13 ГБ

В этой теме нет новых непрочитанных сообщений. Джек Ричер / Jack Reacher (2012) BDRip-AVC | D | Лицензия

104 | 20

2.5 ГБ

В этой теме нет новых непрочитанных сообщений. Джек Ричер / Jack Reacher (2012) BDRip-AVC от 0ptimus | D, A

43 | 11

4.93 ГБ

В этой теме нет новых непрочитанных сообщений. Джек Ричер / Jack Reacher (2012) BDRip 720p | D, A

471 | 43

4.22 ГБ

В этой теме нет новых непрочитанных сообщений. Джек Ричер / Jack Reacher (2012) BDRip-AVC от ExKinoRay | D, A | Лицензия

26 | 6

3.91 ГБ

В этой теме нет новых непрочитанных сообщений. Джек Ричер / Jack Reacher (2012) BDRip от Youtracker | Лицензия

32 | 4

2.18 ГБ




Вы не можете начинать темы
Вы не можете отвечать на сообщения
Вы не можете редактировать свои сообщения
Вы не можете удалять свои сообщения
Вы не можете добавлять вложения

Перейти:  
Для Мосгорсуда, Роскомнадзора и рекламодателей: mosgorsud-torrent[собачка]yandex.ru
 Вход
ppkBB3cker v.2 © 2008-2014 @ PPK
[ Time : 0.045s | 17 Queries | GZIP : Off ]
CGP output time : 0.025s | 5 Queries | GZIP : Off

Торрент трекер RUTOR.IN, Не можете зайти на rutor.org? Какой новый адрес рутор? Какое зеркало рутор? Не работает rutor.org и зеркала? Тогда наш торрент специально для вас. Rutor.in неофициальное зеркало rutor. В случае если у Вас заблокирован rutor или вдруг Вы не можете на него зайти, то Вы без труда сможете скачать бесплатно и без рекламы последние новинки кино, игр, сериалов и прочего у нас, на Rutor.in. Не нужно использовать прокси, чтобы зайти на рутор, достаточно воспользоваться нашим ресурсом. Все новые фильмы, игры, сериалы, книги и музыка за 2013 и 2014 годы через торрент бесплатно. Скачивайте фильмы в хорошем качестве, игры для пк, xbox, playstation без регистрации. У нас вы найдете новые Зарубежные сериалы и Русские сериалы 2013, 2014, 2015 годов. Оставайтесь с нами, качайте любимые фильмы, игры, сериалы, книги и музыку.