img image001 image001 image001 image001 image001 image001 image001 image001 image001 image001 image001 image001 image001 image001 image001 image001

Planets Sun Sun Sun
Статистика раздачи
Автор: Снежана | Размер: 748.59 МБ | Добавлен: 23 июл 2013
Раздают: 5    Качают: 1
Скачать торрент
Скачать торрент
Описание торрента

СообщениеДобавлено: 23 июл 2013 

Страна: Великобритания
Жанр: детектив, комедия
Год выпуска: 1988
Продолжительность: 01:20:10

Перевод: Авторский (одноголосый закадровый) Юрий Сербин
Cубтитры: нет
Оригинальная аудиодорожка: нет

Режиссер: Стивен Байли / Stephen Bayly

В ролях: Колин Дэйл, Саид Джаффри, Дарсли МакЛинден, Хосе Рене Руис, Майкл Роббинс, Дональд Стэнден, Патриция Ходж, Джим МакМанус, Джимми Наил, Рой Киннер...

Описание: Карлик передаёт на хранение коробку самому некомпетентному частному детективу Джиму Даймонду. В этот же день карлика находят мертвым. Распаковав коробку, Джим вместе со своим младшим братом выясняют, что это всего лишь коробка конфет. Что может таиться в коробке конфет и почему ей интересуются, чуть ли не все мафиозники Европы?

Доп. информация: За оцифровку VHS с переводом Сербина спасибо Fikaloid.

Сэмпл: http://multi-up.com/859197

Качество видео: DVDRip
Формат видео: AVI

Видео: 688x368 (1.87:1), 25 fps, XviD build 50 ~1199 kbps avg, 0.19 bit/pixel
Аудио: 48 kHz, AC3 Dolby Digital, 1/0 (C) ch, ~96 kbps


General
Complete name : C:Just Ask For Diamond.avi
Format : AVI
Format/Info : Audio Video Interleave
File size : 749 MiB
Duration : 1h 20mn
Overall bit rate : 1 306 Kbps
Writing application : VirtualDubMod 1.5.10.3 (build 2550/release)
Writing library : VirtualDubMod build 2550/release

Video
ID : 0
Format : MPEG-4 Visual
Format profile : Advanced Simple@L5
Format settings, BVOP : 2
Format settings, QPel : No
Format settings, GMC : No warppoints
Format settings, Matrix : Default (MPEG)
Codec ID : XVID
Codec ID/Hint : XviD
Duration : 1h 20mn
Bit rate : 1 200 Kbps
Width : 688 pixels
Height : 368 pixels
Display aspect ratio : 1.85:1
Frame rate : 25.000 fps
Color space : YUV
Chroma subsampling : 4:2:0
Bit depth : 8 bits
Scan type : Progressive
Compression mode : Lossy
Bits/(Pixel*Frame) : 0.190
Stream size : 688 MiB (92%)
Writing library : XviD 1.2.1 (UTC 2008-12-04)

Audio
ID : 1
Format : AC-3
Format/Info : Audio Coding 3
Mode extension : CM (complete main)
Format settings, Endianness : Big
Codec ID : 2000
Duration : 1h 20mn
Bit rate mode : Constant
Bit rate : 96.0 Kbps
Channel(s) : 1 channel
Channel positions : Front: C
Sampling rate : 48.0 KHz
Bit depth : 16 bits
Compression mode : Lossy
Stream size : 55.0 MiB (7%)
Alignment : Split accross interleaves
Interleave, duration : 40 ms (1.00 video frame)
Interleave, preload duration : 500 ms




   Похожие торренты   Торрент   Размер 
В этой теме нет новых непрочитанных сообщений. Большой / Big (1988) HDRip от Scarabey | A | Ю.Сербин | Режиссёрская версия

53 | 9

798.57 МБ

В этой теме нет новых непрочитанных сообщений. Большой / Big (1988) HDRip от Scarabey | A | Ю.Сербин | Режиссёрская версия

104 | 20

1.45 ГБ

В этой теме нет новых непрочитанных сообщений. Юрий Клименко и группа Юг - Коллекция [2 Альбома] (1987-1988) FLAC

21 | 13

1.58 ГБ

В этой теме нет новых непрочитанных сообщений. Алмазы на десерт [01-03 из 03] (2006) DVDRip от MediaClub

126 | 13

2.19 ГБ

В этой теме нет новых непрочитанных сообщений. Алмазы ночи / Démanty noci (1964) DVDRip | Sub

14 | 2

666.72 МБ

В этой теме нет новых непрочитанных сообщений. Кровавые алмазы / Diamanti sporchi di sangue (1977) DVDRip | L1

32 | 4

1.46 ГБ

В этой теме нет новых непрочитанных сообщений. Кровавые алмазы / Diamanti sporchi di sangue (1977) DVDRip

31 | 5

1.52 ГБ




Вы не можете начинать темы
Вы не можете отвечать на сообщения
Вы не можете редактировать свои сообщения
Вы не можете удалять свои сообщения
Вы не можете добавлять вложения

Перейти:  
 Вход
ppkBB3cker v.2 © 2008-2014 @ PPK
[ Time : 0.025s | 17 Queries | GZIP : Off ]

cron