img image001 image001 image001 image001 image001 image001 image001 image001 image001 image001 image001 image001 image001 image001 image001 image001

Planets Sun Sun Sun
Статистика раздачи
Автор: Снежана | Размер: 5.76 ГБ | Добавлен: 23 июл 2013
Раздают: 16    Качают: 5
Скачать торрент
Скачать торрент
Описание торрента

СообщениеДобавлено: 23 июл 2013 

#77

Информация о фильме
Название: Сквозные ранения
Оригинальное: Exit Wounds
Год выхода: 2001
Страна: США
Выпущено: Silver Pictures, NPV Entertainment, Village Roadshow Entertainment
Жанр: Боевик, триллер, комедия, драма, криминал
Продолжительность: 01:37:09
Перевод: Профессиональный (Дублированный, авторский одноголосый) закадровый
Режиссер: Анджей Бартковяк
В ролях: Стивен Сигал, DMX, Айзэйя Вашингтон, Энтони Андерсон, Майкл Джей Уайт, Билл Дьюк, Джилл Хеннесси, Том Арнольд, Брюс МакГилл, Давид Вадим


Сюжет фильма

Стивен Cигал и DMX не на шутку разбушевались в этом зажигательном триллере. Именем детектива Орина Бойда из Детройта следовало бы назвать улицу. Вместо этого, после того как он днями и ночами охотился за наемными политическими убийцами, его переводят в дорожную полицию. Кто-то хочет убрать Бойда с дороги, но ему стоит прислушаться к совету: «вызывай подкрепление»! Ветеран боевиков и мастер боевых искусств Сигал - в роли Бойда, детектива со стальной волей. DMX, звезда рэпа, который покорил сердца кинозрителей в фильме «Ромео должен умереть», играет смышленого уличного парня, который может стать союзником Бойда в его борьбе с коррупцией в полиции. А может и не стать...




Файл
Кодек: x264
Формат: MKV
Качество: HDTVRip 1080p
Видео: MPEG-4 AVC (2.35:1) 1920x816, 25.000 fps, 7340 kbps
Аудио:
#1: Dolby Digital (5.1) 16 bit, 48 kHz, 384 kbps (DUB)
#2: Dolby Digital (2.0) 16 bit, 48 kHz, 384 kbps (AVO "Ю. Живов")
#3: Dolby Digital (2.0) 16 bit, 48 kHz, 384 kbps (ENG "Original")

Скриншоты

General
Unique ID : 200590233594972671777676738306531433296 (0x96E84614091C67BE8C298622EE989B50)
Format : Matroska
Format version : Version 2
File size : 5.76 GiB
Duration : 1h 37mn
Overall bit rate : 8 493 Kbps
Movie name : Сквозные ранения (2001) HDTVRip (1080p)
Encoded date : UTC 2013-04-30 19:54:01
Writing application : mkvmerge v5.8.0 ('No Sleep / Pillow') built on Sep 2 2012 15:37:04
Writing library : libebml v1.2.3 + libmatroska v1.3.0

Video
ID : 1
Format : AVC
Format/Info : Advanced Video Codec
Format profile : High@L4.1
Format settings, CABAC : Yes
Format settings, ReFrames : 5 frames
Codec ID : V_MPEG4/ISO/AVC
Duration : 1h 37mn
Bit rate : 7 340 Kbps
Width : 1 920 pixels
Height : 816 pixels
Display aspect ratio : 2.35:1
Frame rate mode : Constant
Frame rate : 25.000 fps
Color space : YUV
Chroma subsampling : 4:2:0
Bit depth : 8 bits
Scan type : Progressive
Bits/(Pixel*Frame) : 0.187
Stream size : 4.87 GiB (84%)
Title : Release by Alex260680
Writing library : x264 core 130 r2273 b3065e6
Encoding settings : cabac=1 / ref=5 / deblock=1:0:0 / analyse=0x3:0x133 / me=umh / subme=11 / psy=1 / psy_rd=1.00:0.10 / mixed_ref=1 / me_range=32 / chroma_me=1 / trellis=2 / 8x8dct=1 / cqm=0 / deadzone=21,11 / fast_pskip=0 / chroma_qp_offset=-3 / threads=12 / lookahead_threads=1 / sliced_threads=0 / nr=0 / decimate=0 / interlaced=0 / bluray_compat=0 / constrained_intra=0 / bframes=5 / b_pyramid=2 / b_adapt=2 / b_bias=0 / direct=3 / weightb=1 / open_gop=0 / weightp=2 / keyint=250 / keyint_min=25 / scenecut=40 / intra_refresh=0 / rc=2pass / mbtree=0 / bitrate=7340 / ratetol=1.0 / qcomp=0.60 / qpmin=0 / qpmax=69 / qpstep=4 / cplxblur=20.0 / qblur=0.5 / ip_ratio=1.40 / pb_ratio=1.30 / aq=1:0.80
Language : English
Default : Yes
Forced : No

Audio #1
ID : 2
Format : AC-3
Format/Info : Audio Coding 3
Mode extension : CM (complete main)
Format settings, Endianness : Big
Codec ID : A_AC3
Duration : 1h 37mn
Bit rate mode : Constant
Bit rate : 384 Kbps
Channel(s) : 6 channels
Channel positions : Front: L C R, Side: L R, LFE
Sampling rate : 48.0 KHz
Bit depth : 16 bits
Compression mode : Lossy
Stream size : 267 MiB (5%)
Title : DUB
Language : Russian
Default : Yes
Forced : No

Audio #2
ID : 3
Format : AC-3
Format/Info : Audio Coding 3
Mode extension : CM (complete main)
Format settings, Endianness : Big
Codec ID : A_AC3
Duration : 1h 37mn
Bit rate mode : Constant
Bit rate : 384 Kbps
Channel(s) : 2 channels
Channel positions : Front: L R
Sampling rate : 48.0 KHz
Bit depth : 16 bits
Compression mode : Lossy
Stream size : 267 MiB (5%)
Title : AVO (Юрий Живов)
Language : Russian
Default : No
Forced : No

Audio #3
ID : 4
Format : AC-3
Format/Info : Audio Coding 3
Mode extension : CM (complete main)
Format settings, Endianness : Big
Codec ID : A_AC3
Duration : 1h 37mn
Bit rate mode : Constant
Bit rate : 384 Kbps
Channel(s) : 2 channels
Channel positions : Front: L R
Sampling rate : 48.0 KHz
Bit depth : 16 bits
Compression mode : Lossy
Stream size : 267 MiB (5%)
Title : Original
Language : English
Default : No
Forced : No

x264 [info]: frame I:1478 Avg QP:15.43 size:140296
x264 [info]: frame P:44929 Avg QP:17.92 size: 61811
x264 [info]: frame B:99330 Avg QP:19.59 size: 23788
Используемое программное обеспечение: "Eac3to", "XviD4PSP", "Sonic Foundry Soft Encode", "SupRip", "MKVToolNix"

Мои раздачи:




   Похожие торренты   Торрент   Размер 
В этой теме нет новых непрочитанных сообщений. Сквозные ранения / Exit Wounds (2001) BDRip 1080p | D, P, A

40 | 15

7.94 ГБ

В этой теме нет новых непрочитанных сообщений. Сквозные ранения / Exit Wounds (2001) HDRip | A

7 | 2

1.46 ГБ

В этой теме нет новых непрочитанных сообщений. Сквозные ранения / Exit Wounds (2001) BDRip-AVC от ExKinoRay

71 | 26

3.62 ГБ

В этой теме нет новых непрочитанных сообщений. Сквозные ранения / Exit Wounds (2001) BDRip 720p

44 | 9

4.37 ГБ

В этой теме нет новых непрочитанных сообщений. Сквозные ранения / Exit Wounds (2001) BDRip от HQCLUB

267 | 75

2.18 ГБ

В этой теме нет новых непрочитанных сообщений. Сквозные ранения / Exit Wounds (2001) BDRip от Dalemake | D

87 | 54

1.46 ГБ

В этой теме нет новых непрочитанных сообщений. The Haunted - Exit Wounds (2014) Mp3

23 | 7

102.35 МБ




Вы не можете начинать темы
Вы не можете отвечать на сообщения
Вы не можете редактировать свои сообщения
Вы не можете удалять свои сообщения
Вы не можете добавлять вложения

Перейти:  
 Вход
ppkBB3cker v.2 © 2008-2014 @ PPK
[ Time : 0.037s | 15 Queries | GZIP : Off ]

cron