img image001 image001 image001 image001 image001 image001 image001 image001 image001 image001 image001 image001 image001 image001 image001

Planets Sun Sun Sun
Статистика раздачи
Автор: Снежана | Размер: 7.55 ГБ | Добавлен: 23 июл 2013
Раздают: 12    Качают: 5
Скачать торрент
Скачать торрент
Описание торрента

СообщениеДобавлено: 23 июл 2013 

#77


Агент под прикрытием / So Undercover
«Новое секретное оружие»


#77

Страна: США
Студия: Exclusive Media Group
Жанр: боевик, комедия
Год выпуска: 2012
Продолжительность: 01:33:48

Перевод: русский дубляж + украинский дубляж [Лицензия, BD RUS]
Оригинальная аудиодорожка: английская
Русские субтитры: есть
Режиссер: Том Вон / Tom Vaughan
В ролях: Майли Сайрус, Джереми Пивен, Майк О’Мэлли, Джошуа Боуман, Лорен МакНайт, Келли Осборн, Элоиз Мамфорд, Меган Парк, Морган Кэлхун, Алексис Нэп, Мэттью Сеттл, Отем Ризер, Брайан Петерсон, Рик Рейц, Камерон Дин Стюарт, Фил Остин, Лоуренс ЛеДжон, Андреа Франкл, Ричард Брайан
Роли дублировали: Вероника Саркисова, Наталья Терешкова, Анастасия Жаркова, Николай Быстров


Главная героиня — Молли — частный детектив, нанятый ФБР для расследования одного важного дела. Девушка отправляется в колледж, чтобы под прикрытием попасть в тайное женское общество.

Тип релиза: BDRip 1080p
Контейнер: MKV
Видео кодек: x264
Аудио кодек: AC3
Видео: AVC / High@L4.1 / 2 pass / 23,976 fps / 1920x804p / 9,8 Mbps / 0.265
Аудио 1: AC3 / 5.1 ch / 640 kbps / Русский дубляж [BD RUS]
Аудио 2: AC3 / 5.1 ch / 448 kbps / Украинский дубляж [BD RUS]
Аудио 3: AC3 / 5.1 ch / 640 kbps / Английский original [BD RUS]
Субтитры: [softsub SRT]
Русские Full, BD RUS
Дополнительно: Сохранены оригинальные чаптеры как на Blu-ray
Рип (видеоряд) от: Killbrain


Раздача от:












x264 [info]: frame I:1283 Avg QP:17.12 size:218851
x264 [info]: frame P:31555 Avg QP:18.79 size: 97067
x264 [info]: frame B:102100 Avg QP:20.63 size: 34739

Общее
Уникальный идентификатор : 176685442685245924600973793014483289336 (0x84EC60E418D0963ABD31046E91E884F8)
Полное имя : F:Скачка торрентSo.Undercover.2012.BDRip1080p(Killbrain).mkv
Формат : Matroska
Версия формата : Version 4 / Version 2
Размер файла : 7,55 Гбайт
Продолжительность : 1 ч. 33 м.
Общий поток : 11,5 Мбит/сек
Название фильма : So Undercover (2012) by Killbrain
Дата кодирования : UTC 2013-05-02 08:14:12
Программа кодирования : mkvmerge v6.2.0 ('Promised Land') built on Apr 28 2013 12:22:01
Библиотека кодирования : libebml v1.3.0 + libmatroska v1.4.0

Видео
Идентификатор : 1
Формат : AVC
Формат/Информация : Advanced Video Codec
Профиль формата : High@L4.1
Параметр CABAC формата : Да
Параметр ReFrames формата : 4 кадра
Идентификатор кодека : V_MPEG4/ISO/AVC
Продолжительность : 1 ч. 33 м.
Битрейт : 9800 Кбит/сек
Ширина : 1920 пикселей
Высота : 804 пикселя
Соотношение сторон : 2,40:1
Режим частоты кадров : Постоянный
Частота кадров : 23,976 кадра/сек
Цветовое пространство : YUV
Субдискретизация насыщенности : 4:2:0
Битовая глубина : 8 бит
Тип развёртки : Прогрессивная
Бит/(Пиксели*Кадры) : 0.265
Размер потока : 6,27 Гбайт (83%)
Заголовок : So Undercover (2012)
Библиотека кодирования : x264 core 132 r2309 3b1f1f7
Настройки программы : cabac=1 / ref=4 / deblock=1:-3:-3 / analyse=0x3:0x113 / me=umh / subme=10 / psy=1 / psy_rd=1.00:0.15 / mixed_ref=1 / me_range=16 / chroma_me=1 / trellis=2 / 8x8dct=1 / cqm=0 / deadzone=21,11 / fast_pskip=0 / chroma_qp_offset=-3 / threads=3 / lookahead_threads=1 / sliced_threads=0 / nr=0 / decimate=0 / interlaced=0 / bluray_compat=0 / constrained_intra=0 / bframes=8 / b_pyramid=2 / b_adapt=2 / b_bias=0 / direct=3 / weightb=1 / open_gop=0 / weightp=2 / keyint=240 / keyint_min=24 / scenecut=40 / intra_refresh=0 / rc_lookahead=60 / rc=2pass / mbtree=0 / bitrate=9800 / ratetol=1.0 / qcomp=0.65 / qpmin=0 / qpmax=69 / qpstep=4 / cplxblur=20.0 / qblur=0.5 / vbv_maxrate=40000 / vbv_bufsize=30000 / nal_hrd=none / ip_ratio=1.40 / pb_ratio=1.30 / aq=1:0.80
Язык : English
Default : Да
Forced : Нет

Аудио #1
Идентификатор : 2
Формат : AC-3
Формат/Информация : Audio Coding 3
Расширение режима : CM (complete main)
Параметр Endianness формата : Big
Идентификатор кодека : A_AC3
Продолжительность : 1 ч. 33 м.
Вид битрейта : Постоянный
Битрейт : 640 Кбит/сек
Каналы : 6 каналов
Расположение каналов : Front: L C R, Side: L R, LFE
Частота : 48,0 КГц
Битовая глубина : 16 бит
Метод сжатия : С потерями
Размер потока : 429 Мбайт (6%)
Заголовок : AC3 / 5.1 ch / 640 kbps / Русский дубляж, BD RUS
Язык : Russian
Default : Да
Forced : Нет

Аудио #2
Идентификатор : 3
Формат : AC-3
Формат/Информация : Audio Coding 3
Расширение режима : CM (complete main)
Параметр Endianness формата : Big
Идентификатор кодека : A_AC3
Продолжительность : 1 ч. 33 м.
Вид битрейта : Постоянный
Битрейт : 448 Кбит/сек
Каналы : 6 каналов
Расположение каналов : Front: L C R, Side: L R, LFE
Частота : 48,0 КГц
Битовая глубина : 16 бит
Метод сжатия : С потерями
Размер потока : 301 Мбайт (4%)
Заголовок : AC3 / 5.1 ch / 448 kbps / Украинский дубляж, BD RUS
Язык : Ukrainian
Default : Нет
Forced : Нет

Аудио #3
Идентификатор : 4
Формат : AC-3
Формат/Информация : Audio Coding 3
Расширение режима : CM (complete main)
Параметр Endianness формата : Big
Идентификатор кодека : A_AC3
Продолжительность : 1 ч. 33 м.
Вид битрейта : Постоянный
Битрейт : 640 Кбит/сек
Каналы : 6 каналов
Расположение каналов : Front: L C R, Side: L R, LFE
Частота : 48,0 КГц
Битовая глубина : 16 бит
Метод сжатия : С потерями
Размер потока : 429 Мбайт (6%)
Заголовок : AC3 / 5.1 ch / 640 kbps / Английский original, BD RUS
Язык : English
Default : Нет
Forced : Нет

Текст
Идентификатор : 5
Формат : UTF-8
Идентификатор кодека : S_TEXT/UTF8
Идентификатор кодека/Информация : UTF-8 Plain Text
Заголовок : Full, BD RUS
Язык : Russian
Default : Нет
Forced : Нет

Меню
00:00:00.000 : :Chapter 01
00:05:43.217 : :Chapter 02
00:11:04.455 : :Chapter 03
00:17:02.396 : :Chapter 04
00:23:14.393 : :Chapter 05
00:28:34.045 : :Chapter 06
00:35:26.040 : :Chapter 07
00:42:49.817 : :Chapter 08
00:48:56.725 : :Chapter 09
00:54:41.403 : :Chapter 10
01:01:19.509 : :Chapter 11
01:05:37.642 : :Chapter 12
01:10:23.969 : :Chapter 13
01:18:27.661 : :Chapter 14
01:24:49.667 : :Chapter 15
01:29:15.308 : :Chapter 16







   Похожие торренты   Торрент   Размер 
В этой теме нет новых непрочитанных сообщений. Агент под прикрытием / So Undercover (2012) BDRip 1080p | Лицензия

4 | 4

6.85 ГБ

В этой теме нет новых непрочитанных сообщений. Агент под прикрытием / So Undercover (2012) BDRip 720p | Лицензия

3 | 4

5.26 ГБ

В этой теме нет новых непрочитанных сообщений. Агент под прикрытием / So Undercover (2012) HDRip | Лицензия

342 | 14

1.46 ГБ

В этой теме нет новых непрочитанных сообщений. Агент под прикрытием / So Undercover (2012) HDRip от Scarabey | D | Лицензия

20 | 2

1.45 ГБ

В этой теме нет новых непрочитанных сообщений. Агент под прикрытием / So Undercover (2012) HDRip-AVC от Stalker oK | D | Лицензия

58 | 7

741.79 МБ

В этой теме нет новых непрочитанных сообщений. Агент под прикрытием / So Undercover (2012) HDRip от Scarabey | D | Лицензия

8 | 4

742.93 МБ

В этой теме нет новых непрочитанных сообщений. Агент под прикрытием / So Undercover (2012) HDRip от Generalfilm | КПК | Лицензия

7 | 3

382.7 МБ




Вы не можете начинать темы
Вы не можете отвечать на сообщения
Вы не можете редактировать свои сообщения
Вы не можете удалять свои сообщения
Вы не можете добавлять вложения

Перейти:  
Для Мосгорсуда, Роскомнадзора и рекламодателей: mosgorsud-torrent[собачка]yandex.ru
 Вход
ppkBB3cker v.2 © 2008-2014 @ PPK
[ Time : 0.056s | 18 Queries | GZIP : Off ]

cron