img image001 image001 image001 image001 image001 image001 image001 image001 image001 image001 image001 image001 image001 image001 image001 image001

Planets Sun Sun Sun
Статистика раздачи
Автор: Снежана | Размер: 5.77 ГБ | Добавлен: 23 июл 2013
Раздают: 69    Качают: 9
Скачать торрент
Скачать торрент
Описание торрента

СообщениеДобавлено: 23 июл 2013 

#77

Информация о фильме:
Название: Темный город
Оригинальное название: Dark City
Год выхода: 1998
Жанр: фантастика, детектив
Режиссер: Алекс Пройас
В ролях: Руфус Сьюэлл, Уильям Хёрт, Кифер Сазерленд, Дженнифер Коннелли, Ричард О’Брайэн, Иэн Ричардсон, Брюс Спенс, Колин Фрилз, Джон Блузал, Митчел Бутел

О фильме:
Убийцу, не помнящего своего имени и прошлого, преследует полицейский инспектор Фрэнк Бастед. Его ищет жена Эмма, за ним охотятся чужаки, а он по обрывкам воспоминаний пытается разобраться в том, что происходит.



Выпущено: Австралия, США
Продолжительность: 01:51:44
Перевод: Профессиональный (многоголосый, закадровый)[Киномания] + Оригинал

Файл
Кодек: x264
Качество: BDRip 1080p
Видео: 1920x808, 6494 Kbps, 23.976 fps
Аудио #1: AC-3, 6 ch, 448 kbps (Rus)
Аудио #2: AC-3, 6 ch, 448 kbps (Eng)
Субтитры: русские, английские

Общее
Уникальный идентификатор : 179626436867526969210687418729603735816 (0x8722CB196C4EB6488C243D27C7A32108)
Полное имя : Темный город.1998.BDRip.1080p.Rus.Eng.mkv
Формат : Matroska
Версия формата : Version 2
Размер файла : 5,77 Гбайт
Продолжительность : 1 ч. 51 м.
Общий поток : 7391 Кбит/сек
Название фильма : Темный город.1998
Дата кодирования : UTC 2013-05-12 15:31:45
Программа кодирования : mkvmerge v5.8.0 ('No Sleep / Pillow') built on Sep 2 2012 15:37:04
Библиотека кодирования : libebml v1.2.3 + libmatroska v1.3.0

Видео
Идентификатор : 1
Формат : AVC
Формат/Информация : Advanced Video Codec
Профиль формата : High@L4.1
Параметр CABAC формата : Да
Параметр ReFrames формата : 5 кадров
Идентификатор кодека : V_MPEG4/ISO/AVC
Продолжительность : 1 ч. 51 м.
Битрейт : 6494 Кбит/сек
Ширина : 1920 пикселей
Высота : 808 пикселей
Соотношение сторон : 2,40:1
Режим частоты кадров : Постоянный
Частота кадров : 23,976 кадра/сек
Цветовое пространство : YUV
Субдискретизация насыщенности : 4:2:0
Битовая глубина : 8 бит
Тип развёртки : Прогрессивная
Бит/(Пиксели*Кадры) : 0.175
Размер потока : 4,95 Гбайт (86%)
Заголовок : Rip by Boriy
Библиотека кодирования : x264 core 132 r2310 76a5c3a
Настройки программы : cabac=1 / ref=5 / deblock=1:0:0 / analyse=0x3:0x113 / me=umh / subme=10 / psy=1 / psy_rd=1.00:0.10 / mixed_ref=1 / me_range=32 / chroma_me=1 / trellis=2 / 8x8dct=1 / cqm=0 / deadzone=21,11 / fast_pskip=0 / chroma_qp_offset=-2 / threads=12 / lookahead_threads=1 / sliced_threads=0 / nr=0 / decimate=0 / interlaced=0 / bluray_compat=0 / constrained_intra=0 / bframes=5 / b_pyramid=2 / b_adapt=2 / b_bias=0 / direct=3 / weightb=1 / open_gop=0 / weightp=2 / keyint=240 / keyint_min=23 / scenecut=40 / intra_refresh=0 / rc=2pass / mbtree=0 / bitrate=6494 / ratetol=1.0 / qcomp=0.60 / qpmin=0 / qpmax=69 / qpstep=4 / cplxblur=20.0 / qblur=0.5 / ip_ratio=1.40 / pb_ratio=1.30 / aq=2:0.80
Язык : English
Default : Да
Forced : Нет

Аудио #1
Идентификатор : 2
Формат : AC-3
Формат/Информация : Audio Coding 3
Расширение режима : CM (complete main)
Параметр Endianness формата : Big
Идентификатор кодека : A_AC3
Продолжительность : 1 ч. 51 м.
Вид битрейта : Постоянный
Битрейт : 448 Кбит/сек
Каналы : 6 каналов
Расположение каналов : Front: L C R, Side: L R, LFE
Частота : 48,0 КГц
Битовая глубина : 16 бит
Метод сжатия : С потерями
Размер потока : 358 Мбайт (6%)
Заголовок : Профессиональный (многоголосый, закадровый)[Киномания]
Язык : Russian
Default : Да
Forced : Нет

Аудио #2
Идентификатор : 3
Формат : AC-3
Формат/Информация : Audio Coding 3
Расширение режима : CM (complete main)
Параметр Endianness формата : Big
Идентификатор кодека : A_AC3
Продолжительность : 1 ч. 51 м.
Вид битрейта : Постоянный
Битрейт : 448 Кбит/сек
Каналы : 6 каналов
Расположение каналов : Front: L C R, Side: L R, LFE
Частота : 48,0 КГц
Битовая глубина : 16 бит
Метод сжатия : С потерями
Размер потока : 358 Мбайт (6%)
Заголовок : Оригинал
Язык : English
Default : Нет
Forced : Нет

Текст #1
Идентификатор : 4
Формат : UTF-8
Идентификатор кодека : S_TEXT/UTF8
Идентификатор кодека/Информация : UTF-8 Plain Text
Язык : Russian
Default : Нет
Forced : Нет

Текст #2
Идентификатор : 5
Формат : UTF-8
Идентификатор кодека : S_TEXT/UTF8
Идентификатор кодека/Информация : UTF-8 Plain Text
Язык : English
Default : Нет
Forced : Нет

Меню
00:00:00.000 : :Chapter 1
00:02:00.078 : :Chapter 2
00:07:20.022 : :Chapter 3
00:12:09.520 : :Chapter 4
00:19:22.286 : :Chapter 5
00:23:00.754 : :Chapter 6
00:27:40.867 : :Chapter 7
00:34:35.448 : :Chapter 8
00:48:26.653 : :Chapter 9
00:57:14.180 : :Chapter 10
01:05:31.677 : :Chapter 11
01:11:08.722 : :Chapter 12
01:16:27.874 : :Chapter 13
01:19:31.266 : :Chapter 14
01:29:16.809 : :Chapter 15
01:40:04.498 : :Chapter 16
01:45:08.302 : :Chapter 17
01:51:43.488 : :Chapter 18



   Похожие торренты   Торрент   Размер 
В этой теме нет новых непрочитанных сообщений. Темный город / Dark City (1998) HDRip | Режиссерская версия / Director's Cut | P

113 | 12

747.23 МБ

В этой теме нет новых непрочитанных сообщений. Темный город / Город тьмы / Dark City (1998) BDRip-AVC | 60fps | Режиссерская версия

360 | 12

3.82 ГБ

В этой теме нет новых непрочитанных сообщений. Темный город / Dark City (1998) BDRip-AVC от MediaClub | P, A | Режиссерская версия

77 | 9

3.31 ГБ

В этой теме нет новых непрочитанных сообщений. Темный город / Dark City (1998) BDRip-AVC | iPad | P,P1 | Режиссерская версия

52 | 33

1.73 ГБ

В этой теме нет новых непрочитанных сообщений. Темный Город / Dark City (1998) HDRip от Scarabey | P | Режиссёрская версия

152 | 11

745.69 МБ

В этой теме нет новых непрочитанных сообщений. Темный Город / Dark City (1998) HDRip от Scarabey | P | Режиссёрская версия

74 | 5

1.45 ГБ

В этой теме нет новых непрочитанных сообщений. Темный Город / Dark City (1998) HDRip от Scarabey | P | Режиссёрская версия

1102 | 108

1.45 ГБ




Вы не можете начинать темы
Вы не можете отвечать на сообщения
Вы не можете редактировать свои сообщения
Вы не можете удалять свои сообщения
Вы не можете добавлять вложения

Перейти:  
 Вход
ppkBB3cker v.2 © 2008-2014 @ PPK
[ Time : 0.492s | 16 Queries | GZIP : Off ]

cron