img image001 image001 image001 image001 image001 image001 image001 image001 image001 image001 image001 image001 image001 image001 image001 image001

Planets Sun Sun Sun
Статистика раздачи
Автор: Снежана | Размер: 2.18 ГБ | Добавлен: 23 июл 2013
Раздают: 150    Качают: 13
Скачать торрент
Скачать торрент
Описание торрента

СообщениеДобавлено: 23 июл 2013 

Гинденбург: Последний полет / Hindenburg (2011) BDRip-AVC



Информация о фильме
Название: Гинденбург: Последний полет
Оригинальное название: Hindenburg
Год выхода: 2011
Жанр: боевик, триллер, драма
Режиссер: Филипп Кадельбах

В ролях: Максимилиан Симонишек, Лорен Ли Смит, Стейси Кич, Грета Скакки, Хиннерк Шонеманн, Юстус фон Донаньи, Ханнес Янике, Кристиана Пауль, Пьер Бессон, Алисия фон Риттберг...

О фильме: История гибели самого крупного воздушного судна ХХ века, символа нацистской Германии. 1937 год. Громадный дирижабль «Гинденбург» отправляется в свой первый полет над Атлантикой. Никто из пассажиров и членов экипажа не подозревает, что на борту воздушного судна заложена бомба…



Страна: Германия
Продолжительность: 03:07:35
Перевод: Дублированный (ТВ-3)

Файл
Кодек: x.264
Качество: BDRip-AVC
Видео: 1024x576 (16:9), 24 fps, 1473 kbps, 0.104 bit/pixel
Звук: 48 kHz, AC3 Dolby Digital, 2 ch, ~192.00 kbps
Сэмпл

&

Общее
Уникальный идентификатор : 247243688204282579034474421716830479916 (0xBA0166FAFE003F2BB944FD32AA91662C)
Полное имя : D:Hindenburg.2011.BDRip-AVC.mkv
Формат : Matroska
Версия формата : Version 4 / Version 2
Размер файла : 2,18 Гбайт
Продолжительность : 3 ч. 7 м.
Общий поток : 1666 Кбит/сек
Название фильма : Гинденбург: Последний полет / Hindenburg (2011) BDRip-AVC rip by Rulya74
Дата кодирования : UTC 2013-05-15 03:11:50
Программа кодирования : mkvmerge v6.2.0 ('Promised Land') built on Apr 28 2013 12:22:01
Библиотека кодирования : libebml v1.3.0 + libmatroska v1.4.0

Видео
Идентификатор : 1
Формат : AVC
Формат/Информация : Advanced Video Codec
Профиль формата : High@L4.1
Параметр CABAC формата : Да
Параметр ReFrames формата : 9 кадров
Идентификатор кодека : V_MPEG4/ISO/AVC
Продолжительность : 3 ч. 7 м.
Битрейт : 1473 Кбит/сек
Ширина : 1024 пикселя
Высота : 576 пикселей
Соотношение сторон : 16:9
Режим частоты кадров : Постоянный
Частота кадров : 24,000 кадра/сек
Цветовое пространство : YUV
Субдискретизация насыщенности : 4:2:0
Битовая глубина : 8 бит
Тип развёртки : Прогрессивная
Бит/(Пиксели*Кадры) : 0.104
Размер потока : 1,89 Гбайт (86%)
Библиотека кодирования : x264 core 132 r2310 76a5c3a
Настройки программы : cabac=1 / ref=9 / deblock=1:-1:-1 / analyse=0x3:0x113 / me=umh / subme=9 / psy=1 / psy_rd=1.01:0.06 / mixed_ref=1 / me_range=32 / chroma_me=1 / trellis=2 / 8x8dct=1 / cqm=0 / deadzone=21,11 / fast_pskip=0 / chroma_qp_offset=-3 / threads=6 / lookahead_threads=1 / sliced_threads=0 / nr=0 / decimate=1 / interlaced=0 / bluray_compat=0 / constrained_intra=0 / bframes=7 / b_pyramid=2 / b_adapt=2 / b_bias=0 / direct=3 / weightb=1 / open_gop=0 / weightp=2 / keyint=240 / keyint_min=22 / scenecut=40 / intra_refresh=0 / rc_lookahead=40 / rc=2pass / mbtree=1 / bitrate=1473 / ratetol=1.0 / qcomp=0.60 / qpmin=0 / qpmax=69 / qpstep=4 / cplxblur=20.0 / qblur=0.5 / vbv_maxrate=62500 / vbv_bufsize=78125 / nal_hrd=none / ip_ratio=1.40 / aq=1:1.00
Default : Да
Forced : Нет

Аудио
Идентификатор : 2
Формат : AC-3
Формат/Информация : Audio Coding 3
Расширение режима : CM (complete main)
Параметр Endianness формата : Big
Идентификатор кодека : A_AC3
Продолжительность : 3 ч. 7 м.
Вид битрейта : Постоянный
Битрейт : 192 Кбит/сек
Каналы : 2 канала
Расположение каналов : Front: L R
Частота : 48,0 КГц
Битовая глубина : 16 бит
Метод сжатия : С потерями
Размер потока : 258 Мбайт (12%)
Заголовок : Дублированный (ТВ-3)
Язык : Russian
Default : Да
Forced : Нет




   Похожие торренты   Торрент   Размер 
В этой теме нет новых непрочитанных сообщений. Гинденбург: Последний полёт / Hindenburg (2011) BDRip | D

13 | 9

3.02 ГБ

В этой теме нет новых непрочитанных сообщений. Гинденбург: Последний полёт / Hindenburg (2011) BDRip 1080p | D

27 | 8

17.77 ГБ

В этой теме нет новых непрочитанных сообщений. Гинденбург: Последний полёт / Hindenburg (2011) BDRip 720p | D

15 | 3

7.8 ГБ

В этой теме нет новых непрочитанных сообщений. Гинденбург: Последний полет / Hindenburg (2011) BDRemux 1080p | D

0 | 3

20.79 ГБ

В этой теме нет новых непрочитанных сообщений. Гинденбург / The Hindenburg (1975) BDRip 720p | P, A

15 | 0

5.37 ГБ

В этой теме нет новых непрочитанных сообщений. Гинденбург / The Hindenburg (1975) HDRip от Koenig | P

6 | 0

1.45 ГБ

В этой теме нет новых непрочитанных сообщений. Гинденбург / The Hindenburg (1975) DVDRip от Киномагия l P

248 | 10

2.2 ГБ




Вы не можете начинать темы
Вы не можете отвечать на сообщения
Вы не можете редактировать свои сообщения
Вы не можете удалять свои сообщения
Вы не можете добавлять вложения

Перейти:  
 Вход
ppkBB3cker v.2 © 2008-2014 @ PPK
[ Time : 0.038s | 17 Queries | GZIP : Off ]

cron