img image001 image001 image001 image001 image001 image001 image001 image001 image001 image001 image001 image001 image001 image001 image001 image001

Planets Sun Sun Sun
Статистика раздачи
Автор: Снежана | Размер: 3.02 ГБ | Добавлен: 23 июл 2013
Раздают: 13    Качают: 9
Скачать торрент
Скачать торрент
Описание торрента

СообщениеДобавлено: 23 июл 2013 

#77

Название: Гинденбург: Последний полёт
Оригинальное название: Hindenburg
Год выпуска: 2011
Жанр: Боевик, триллер, драма
Выпущено: Германия, RTL, TeamWorx Television & Film
Режиссер: Филипп Кадельбах
В ролях: Максимилиан Симонишек, Лорен Ли Смит, Стейси Кич, Грета Скакки, Хиннерк Шонеманн, Юстус фон Донаньи, Ханнес Янике, Кристиана Пауль, Пьер Бессон, Алисия фон Риттберг, Вотан Вильке Меринг, Шенке Меринг, Андреас Питчманн, Хайнер Лаутербах, Михаэль Шенк, Меган Гэй, Николя Томас, Ульрих Нетен, Юрген Шорнагель, Мартин Армкнехт, Стефан Вейнерт, Роберт Силигер, Антуан Моно мл., Туре Линдхардт, Кристиан Серритиелло, Рики Уотсон, Витус Визер, Пит Фухс, Харви Фридман, Яша Стиллер

О фильме: История гибели самого крупного воздушного судна ХХ века, символа нацистской Германии. 1937 год. Громадный дирижабль «Гинденбург» отправляется в свой полёт над Атлантикой. Никто из пассажиров и членов экипажа не подозревает, что на борту воздушного судна заложена бомба…

Качество: BDRip
Видео: XviD, 1904 Кбит/с, 720x400
Аудио: Русский, английский (AC3, 2 ch, 192 Кбит/с)
Размер: 3.01 ГБ
Продолжительность: 03:07:35
Перевод: Дублированный

Исходник

Сравнение с исходником



Общее
Полное имя : E:VideoGindenburg.Poslednij.polet.2011.XviD.BDRip.avi
Формат : AVI
Формат/Информация : Audio Video Interleave
Профиль формата : OpenDML
Размер файла : 3,02 Гбайт
Продолжительность : 3 ч. 7 м.
Общий поток : 2304 Кбит/сек
Программа кодирования : VirtualDubMod 1.5.10.2 (build 2540/release)
Библиотека кодирования : VirtualDubMod build 2540/release

Видео
Идентификатор : 0
Формат : MPEG-4 Visual
Профиль формата : Advanced Simple@L5
Параметр BVOP формата : 1
Параметр QPel формата : Нет
Параметр GMC формата : Без точки перехода
Параметр матрицы формата : Default (H.263)
Режим смешивания : Сжатый битовый поток
Идентификатор кодека : XVID
Идентификатор кодека/Подсказка : XviD
Продолжительность : 3 ч. 7 м.
Битрейт : 1904 Кбит/сек
Ширина : 720 пикселей
Высота : 400 пикселей
Соотношение сторон : 16:9
Частота кадров : 24,000 кадра/сек
Цветовое пространство : YUV
Субдискретизация насыщенности : 4:2:0
Битовая глубина : 8 бит
Тип развёртки : Прогрессивная
Метод сжатия : С потерями
Бит/(Пиксели*Кадры) : 0.276
Размер потока : 2,50 Гбайт (83%)
Библиотека кодирования : XviD 1.2.1 (UTC 2008-12-04)

Аудио #1
Идентификатор : 1
Формат : AC-3
Формат/Информация : Audio Coding 3
Расширение режима : CM (complete main)
Параметр Endianness формата : Big
Идентификатор кодека : 2000
Продолжительность : 3 ч. 7 м.
Вид битрейта : Постоянный
Битрейт : 192 Кбит/сек
Каналы : 2 канала
Расположение каналов : Front: L R
Частота : 48,0 КГц
Битовая глубина : 16 бит
Метод сжатия : С потерями
Размер потока : 258 Мбайт (8%)
Выравнивание : Разделение по промежуткам
Продолжительность промежутка : 42 мс. (1,00 видеокадр)
Время предзагрузки промежутка : 500 мс.

Аудио #2
Идентификатор : 2
Формат : AC-3
Формат/Информация : Audio Coding 3
Расширение режима : CM (complete main)
Параметр Endianness формата : Big
Идентификатор кодека : 2000
Продолжительность : 3 ч. 7 м.
Вид битрейта : Постоянный
Битрейт : 192 Кбит/сек
Каналы : 2 канала
Расположение каналов : Front: L R
Частота : 48,0 КГц
Битовая глубина : 16 бит
Метод сжатия : С потерями
Размер потока : 258 Мбайт (8%)
Выравнивание : Разделение по промежуткам
Продолжительность промежутка : 42 мс. (1,00 видеокадр)
Время предзагрузки промежутка : 500 мс.





   Похожие торренты   Торрент   Размер 
В этой теме нет новых непрочитанных сообщений. Гинденбург / The Hindenburg (1975) BDRip 720p | P, A

15 | 0

5.37 ГБ

В этой теме нет новых непрочитанных сообщений. Гинденбург / The Hindenburg (1975) HDRip от Koenig | P

6 | 0

1.45 ГБ

В этой теме нет новых непрочитанных сообщений. Гинденбург. Титаник небес / Hindenburg (2007) IPTVRip-AVC от Pshichko66

25 | 2

1.66 ГБ

В этой теме нет новых непрочитанных сообщений. Гинденбург и Гитлер / Hindenburg - Der Mann, der Hitler zum Kanzler machte (2013) SATRip от torrentfilm

113 | 9

607.7 МБ

В этой теме нет новых непрочитанных сообщений. Полет. Три дня после катастрофы (2013) BDRip

225 | 12

1.37 ГБ

В этой теме нет новых непрочитанных сообщений. Полет. Три дня после катастрофы (2013) BDRip 1080p

32 | 8

3.74 ГБ

В этой теме нет новых непрочитанных сообщений. Полет Феникса / Flight of the Phoenix (2004) BDRip-AVC от HQCLUB

119 | 26

2.91 ГБ




Вы не можете начинать темы
Вы не можете отвечать на сообщения
Вы не можете редактировать свои сообщения
Вы не можете удалять свои сообщения
Вы не можете добавлять вложения

Перейти:  
 Вход
ppkBB3cker v.2 © 2008-2014 @ PPK
[ Time : 0.178s | 18 Queries | GZIP : Off ]

cron