img image001 image001 image001 image001 image001 image001 image001 image001 image001 image001 image001 image001 image001 image001 image001 image001

Planets Sun Sun Sun
Статистика раздачи
Автор: Снежана | Размер: 745.13 МБ | Добавлен: 23 июл 2013
Раздают: 10    Качают: 1
Скачать торрент
Скачать торрент
Описание торрента

СообщениеДобавлено: 23 июл 2013 

#77
Страна: Франция, Германия, Бельгия
Производство: Alvy Productions, BNP Paribas Fortis Film Fund, In Production
Жанр: комедия
Год выпуска: 2012
Продолжительность: 01:31:40

Перевод: Профессиональный (многоголосый закадровый)
Оригинальная аудиодорожка: нет
Cубтитры: нет

Режиссер: Жюли Дельпи / Julie Delpy

В ролях:
Крис Рок, Жюли Дельпи, Альберт Дельпи, Алексия Ландо, Александр Наон, Кейт Бёртон, Дилан Бейкер, Даниэль Брюль, Тален Рут Райли, Оуэн Шипман...

Описание:
Марион, теперь счастливо живущая с Мингусом в их нью-йоркской квартире, нашла все, что ей было так необходимо, отношения, свой дом, успешную карьеру и себя саму в опасности, когда ее отец, сестра и экс-бойфренд решили к ним заглянуть из Франции…





Исходник: DVD9 R5
Тип релиза: DVDRip
Контейнер: AVI

Видео: 688x368 (1,870:1), 25 fps, XviD ~ 999 kbps avg, 0.158 bit/pixel
Аудио: 48 kHz, MP3 5.1, 128 kbps

Раздача от:
Общее
Полное имя : 2.dnja.v.N'ju-Jorke.2012.DVDRip-745_[Youtracker]_by_AVP Studio.avi
Формат : AVI
Формат/Информация : Audio Video Interleave
Размер файла : 745 Мбайт
Продолжительность : 1 ч. 31 м.
Общий поток : 1136 Кбит/сек
Программа кодирования : VirtualDubModRus 1.5.10.2 (build 2542/release)
Библиотека кодирования : VirtualDubMod build 2542/release

Видео
Идентификатор : 0
Формат : MPEG-4 Visual
Профиль формата : Advanced Simple@L5
Параметр BVOP формата : 1
Параметр QPel формата : Нет
Параметр GMC формата : Без точки перехода
Параметр матрицы формата : Выборочная
Идентификатор кодека : XVID
Идентификатор кодека/Подсказка : XviD
Продолжительность : 1 ч. 31 м.
Битрейт : 999 Кбит/сек
Ширина : 688 пикселей
Высота : 368 пикселей
Соотношение сторон : 1,870
Частота кадров : 25,000 кадров/сек
Цветовое пространство : YUV
Субдискретизация насыщенности : 4:2:0
Битовая глубина : 8 бит
Тип развёртки : Прогрессивная
Метод сжатия : С потерями
Бит/(Пиксели*Кадры) : 0.158
Размер потока : 655 Мбайт (88%)
Библиотека кодирования : XviD 65

Аудио
Идентификатор : 1
Формат : MPEG Audio
Версия формата : Version 1
Профиль формата : Layer 3
Идентификатор кодека : 55
Идентификатор кодека/Подсказка : MP3
Продолжительность : 1 ч. 31 м.
Вид битрейта : Постоянный
Битрейт : 128 Кбит/сек
Каналы : 2 канала
Частота : 48,0 КГц
Метод сжатия : С потерями
Размер потока : 83,9 Мбайт (11%)
Выравнивание : Соединение по промежуткам
Продолжительность промежутка : 40 мс. (1,00 видеокадр)
Время предзагрузки промежутка : 504 мс.
Библиотека кодирования : L3.99r
Настройки программы : -m s -V 4 -q 2 -lowpass 17 -b 128





   Похожие торренты   Торрент   Размер 
В этой теме нет новых непрочитанных сообщений. Полицейская в Нью-Йорке / La poliziotta a New York (1981) DVDRip | A

67 | 4

1.41 ГБ

В этой теме нет новых непрочитанных сообщений. Геркулес в Нью-Йорке / Hercules in New York (1970) BDRip-AVC | P, A

5 | 0

2.18 ГБ

В этой теме нет новых непрочитанных сообщений. Геркулес в Нью-Йорке / Hercules in New York (1970) BDRip | P, A

3 | 3

1.58 ГБ

В этой теме нет новых непрочитанных сообщений. Геркулес в Нью-Йорке / Hercules in New York (1970) BDRip от HQCLUB

35 | 4

1.45 ГБ

В этой теме нет новых непрочитанных сообщений. Геркулес в Нью-Йорке / Hercules in New York (1969) BDRip 1080p

28 | 3

6.45 ГБ

В этой теме нет новых непрочитанных сообщений. Жандарм в Нью-Йорке / Le gendarme a New York (1965) BDRip-AVC от New-Team | D

77 | 16

744.94 МБ

В этой теме нет новых непрочитанных сообщений. Король в Нью-Йорке / A King in New York (Чарли Чаплин) [1957, Комедия, драма, BDRip] DUB

6 | 0

1.46 ГБ




Вы не можете начинать темы
Вы не можете отвечать на сообщения
Вы не можете редактировать свои сообщения
Вы не можете удалять свои сообщения
Вы не можете добавлять вложения

Перейти:  
 Вход
ppkBB3cker v.2 © 2008-2014 @ PPK
[ Time : 0.034s | 19 Queries | GZIP : Off ]

cron