img image001 image001 image001 image001 image001 image001 image001 image001 image001 image001 image001 image001 image001 image001 image001

Planets Sun Sun Sun
Статистика раздачи
Автор: Снежана | Размер: 11.3 ГБ | Добавлен: 24 июл 2013
Раздают: 1    Качают: 2
Скачать торрент
Скачать торрент
Описание торрента

СообщениеДобавлено: 24 июл 2013 

#77

Черное Рождество / Black Christmas

Год выпуска: 1974
Страна: Канада
Жанр: ужасы, триллер, детектив
Продолжительность: 01:37:49
Перевод: Профессиональный (двухголосый) + Авторский (одноголосый) Андрей Дольский + Авторский (одноголосый) Сергей Визгунов
Русские субтитры: нет

Режиссер: Боб Кларк / Bob Clark

В ролях: Оливия Хасси, Кир Дулли, Марго Киддер, Джон Сэксон, Мэриэн Уолдман, Андреа Мартин, Джеймс Эдмонд, Даг МакГрат, Арт Хиндл, Линн Гриффин

Описание: Университетский городок Бедфорда. Девушки колледжа готовятся отправиться на зимние рождественские каникулы. Барб просит своих подруг Джесс и Фил остаться с ней на несколько дней, чтобы покататься на лыжах. В доме звонит телефон. Барб берет трубку, но на том конце провода никто не отвечает. Потом мужской голос смеется и говорит разные непристойности. Барб обзывает говорящего, на что тот отвечает, что убьет ее. Барб бросает трубку. Именно после этого звонка девушки из университетского городка начинают потихоньку погибать одна за одной, до утра протянут немногие...
Культовый канадский "слэшер", который согласно многим источникам считается первым представителем этого поджанра ужасов для североамериканских кинопроизводителей. Именно он, если верить слухам, подтолкнул Джона Карпентера на создание фильма "Хэллоуин". Эта картина в свою очередь была создана по мотивам итальянских "джалло", среди которых значится знаменитый "Кровавый залив"



Качество: BDRemux
Формат: MKV

Видео: MPEG-4 AVC Video, 1920x1080 (16:9), 15000 kbps, 23,976 fps, High Profile 4.1
Аудио 1: Dolby Digital Audio Russian 2.0 / 48 kHz / 192 kbps [DVO]
Аудио 2: Dolby Digital Audio Russian 5.1 / 48 kHz / 448 kbps [Дольский]
Аудио 3: Dolby Digital Audio Russian 5.1 / 48 kHz / 448 kbps [Визгунов]
Аудио 4: Dolby Digital Audio English 5.1 / 48 kHz / 448 kbps

ЦитатаКто-то писал:
Дорожки №2-3 получены наложением чистого голоса на центр декодированного AC3
За чистые голоса спасибо HDCLUB
General
Unique ID : 228251954338796458979822773046268950788 (0xABB7BA3517375B9DB591B40ECB4C7904)
Complete name : Black.Christmas.1974.1080p.Bluray.AVC.Remux.mkv
Format : Matroska
Format version : Version 2
File size : 11.3 GiB
Duration : 1h 37mn
Overall bit rate : 16.5 Mbps
Movie name : Black.Christmas.1974.1080p.Bluray.AVC.Remux
Encoded date : UTC 2012-01-26 20:13:01
Writing application : mkvmerge v4.9.1 ('Ich will') сборка от Jul 11 2011 23:53:15
Writing library : libebml v1.2.1 + libmatroska v1.1.1

Video
ID : 1
Format : AVC
Format/Info : Advanced Video Codec
Format profile : High@L4.1
Format settings, CABAC : Yes
Format settings, ReFrames : 4 frames
Codec ID : V_MPEG4/ISO/AVC
Duration : 1h 37mn
Bit rate mode : Variable
Bit rate : 14.7 Mbps
Maximum bit rate : 30.0 Mbps
Width : 1 920 pixels
Height : 1 080 pixels
Display aspect ratio : 16:9
Frame rate : 23.976 fps
Standard : NTSC
Color space : YUV
Chroma subsampling : 4:2:0
Bit depth : 8 bits
Scan type : Progressive
Bits/(Pixel*Frame) : 0.295
Stream size : 10.0 GiB (89%)
Color primaries : BT.709-5, BT.1361, IEC 61966-2-4, SMPTE RP177
Transfer characteristics : BT.709-5, BT.1361
Matrix coefficients : BT.709-5, BT.1361, IEC 61966-2-4 709, SMPTE RP177

Audio #1
ID : 2
Format : AC-3
Format/Info : Audio Coding 3
Mode extension : CM (complete main)
Codec ID : A_AC3
Duration : 1h 37mn
Bit rate mode : Constant
Bit rate : 192 Kbps
Channel(s) : 2 channels
Channel positions : Front: L R
Sampling rate : 48.0 KHz
Bit depth : 16 bits
Compression mode : Lossy
Stream size : 134 MiB (1%)
Title : двухголосый
Language : Russian

Audio #2
ID : 3
Format : AC-3
Format/Info : Audio Coding 3
Mode extension : CM (complete main)
Codec ID : A_AC3
Duration : 1h 37mn
Bit rate mode : Constant
Bit rate : 448 Kbps
Channel(s) : 6 channels
Channel positions : Front: L C R, Side: L R, LFE
Sampling rate : 48.0 KHz
Bit depth : 16 bits
Compression mode : Lossy
Stream size : 313 MiB (3%)
Title : Андрей Дольский
Language : Russian

Audio #3
ID : 4
Format : AC-3
Format/Info : Audio Coding 3
Mode extension : CM (complete main)
Codec ID : A_AC3
Duration : 1h 37mn
Bit rate mode : Constant
Bit rate : 448 Kbps
Channel(s) : 6 channels
Channel positions : Front: L C R, Side: L R, LFE
Sampling rate : 48.0 KHz
Bit depth : 16 bits
Compression mode : Lossy
Stream size : 313 MiB (3%)
Title : Сергей Визгунов
Language : Russian

Audio #4
ID : 5
Format : AC-3
Format/Info : Audio Coding 3
Mode extension : CM (complete main)
Codec ID : A_AC3
Duration : 1h 37mn
Bit rate mode : Constant
Bit rate : 448 Kbps
Channel(s) : 6 channels
Channel positions : Front: L C R, Side: L R, LFE
Sampling rate : 48.0 KHz
Bit depth : 16 bits
Compression mode : Lossy
Stream size : 313 MiB (3%)
Language : English

Menu
00:00:00.000 : en:The Sorority House
00:03:46.101 : en:The Attic Room
00:06:37.397 : en:An Obscene Phone Call
00:10:18.618 : en:Who is That?
00:14:12.185 : en:Peter Calls
00:16:25.318 : en:Mr. Harrison Waits
00:20:58.466 : en:The Leaning Tower of Pisa
00:22:49.368 : en:I'm Pregnant
00:25:12.928 : en:What Your Mother and I Must Know Is...
00:27:53.088 : en:The Police Station
00:29:44.616 : en:The Tortured Pianist
00:32:18.728 : en:Dinner with Mr. Harrison
00:35:23.121 : en:The Grand Piano
00:36:50.208 : en:Searchingfor Janice
00:38:27.096 : en:Luring Mrs. Mac
00:42:35.595 : en:Is That My Janice?
00:43:56.884 : en:Stop Me?
00:47:50.868 : en:Let's Get Married
00:50:39.870 : en:She Gave it to You?
00:52:20.095 : en:Having a Wart Removed
00:54:34.271 : en:Fuller Investigates
00:57:25.025 : en:I Just Know Claire is Dead
00:59:35.572 : en:Rocking Claire
01:02:45.387 : en:THE Glass Unicorn
01:05:59.914 : en:Fuller Listens In
01:08:48.791 : en:Listening to Jess and Phyll
01:11:34.624 : en:You Can't Kill the Baby
01:15:54.467 : en:Phyll Checks on Barb
01:17:18.968 : en:Tracing the Call
01:19:40.526 : en:The Revelation
01:20:47.342 : en:The Caller is in the House
01:23:00.767 : en:Spying on Jess
01:25:15.694 : en:Chasing Jess
01:29:52.804 : en:The Police Arrive
01:31:16.471 : en:Agnes, It's Me Billy
01:36:25.780 : en:The Final Phone Call



   Похожие торренты   Торрент   Размер 
В этой теме нет новых непрочитанных сообщений. Черное Рождество / Black Christmas (1974) BDRip от HQCLUB

0 | 2

2.18 ГБ

В этой теме нет новых непрочитанных сообщений. Черное рождество / Black Christmas (1974) BDRip от HQ-VIDEO

1 | 2

1.46 ГБ

В этой теме нет новых непрочитанных сообщений. Черное Рождество / Black Christmas (2006) HDDVDRip 1080p | Unrated | D, A

14 | 9

9.79 ГБ

В этой теме нет новых непрочитанных сообщений. Черное Рождество / Black Christmas (2006) DVDRip

103 | 26

1.46 ГБ

В этой теме нет новых непрочитанных сообщений. Черное Рождество / Black Christmas (2006) DVD5

1 | 30

3.6 ГБ

В этой теме нет новых непрочитанных сообщений. Черное Рождество / Black Christmas (2006) HDRip | Unrated | A

0 | 2

744.3 МБ

В этой теме нет новых непрочитанных сообщений. Черное золото / Black Gold (2011) BDRemux 1080p от DONOR1967

1 | 4

24.02 ГБ




Вы не можете начинать темы
Вы не можете отвечать на сообщения
Вы не можете редактировать свои сообщения
Вы не можете удалять свои сообщения
Вы не можете добавлять вложения

Перейти:  
Для Мосгорсуда, Роскомнадзора и рекламодателей: mosgorsud-torrent[собачка]yandex.ru
 Вход
ppkBB3cker v.2 © 2008-2014 @ PPK
[ Time : 0.086s | 15 Queries | GZIP : Off ]

Торрент трекер RUTOR.IN, Не можете зайти на rutor.org? Какой новый адрес рутор? Какое зеркало рутор? Не работает rutor.org и зеркала? Тогда наш торрент специально для вас. Rutor.in неофициальное зеркало rutor. В случае если у Вас заблокирован rutor или вдруг Вы не можете на него зайти, то Вы без труда сможете скачать бесплатно и без рекламы последние новинки кино, игр, сериалов и прочего у нас, на Rutor.in. Не нужно использовать прокси, чтобы зайти на рутор, достаточно воспользоваться нашим ресурсом. Все новые фильмы, игры, сериалы, книги и музыка за 2013 и 2014 годы через торрент бесплатно. Скачивайте фильмы в хорошем качестве, игры для пк, xbox, playstation без регистрации. У нас вы найдете новые Зарубежные сериалы и Русские сериалы 2013, 2014, 2015 годов. Оставайтесь с нами, качайте любимые фильмы, игры, сериалы, книги и музыку.