img image001 image001 image001 image001 image001 image001 image001 image001 image001 image001 image001 image001 image001 image001 image001

Planets Sun Sun Sun
Статистика раздачи
Автор: Снежана | Размер: 2.18 ГБ | Добавлен: 23 июл 2013
Раздают: 33    Качают: 8
Скачать торрент
Скачать торрент
Описание торрента

СообщениеДобавлено: 23 июл 2013 

#77


Информация о фильме

Название: Хичкок
Оригинальное название: Hitchcock
Год выхода: 2012
Жанр: драма, биография
Режиссер: Саша Джерваси
В ролях: Майкл Стулбарг, Энтони Хопкинс, Хелен Миррен, Скарлетт Йоханссон, Тони Коллетт, Дэнни Хьюстон, Джессика Бил, Майкл Уинкотт, Джеймс Д’Арси, Ричард Портноу

О фильме

Известный режиссер отваживается на эксперимент: отойти от ставших его визитной карточкой дорогостоящих фильмов в жанре «саспенс» и снять скромную, к тому же черно-белую картину «Психо». В процессе работы будущий «мастер страха» вглядывается в темные бездны человеческой души, чтобы найти те нервные окончания, прикасаясь к которым он мог бы, как по клавишам, сыграть на эмоциях зрителя настоящую симфонию ужаса.

Дополнительно

Выпущено: США / Cold Spring Pictures, Fox Searchlight Pictures, The Montecito Picture Company
Продолжительность: 01:38:20
Озвучивание: Дублированное [лицензия]

Файл

Качество: BDRip 720p (исходник Blu-ray Disc)
Видео: 1280x534, 2529 Kbps, 23.976 кадр/сек, AVC, x264, 2.40, 0.154 Бит/(Пиксели*Кадры)
Аудио: AC-3, 640 Кбит/сек, 6 канала(ов), 48,0 КГц
Чаптеры: Есть
Размер: 2.17 Гб



Format : Matroska
Format version : Version 4 / Version 2
File size : 2.18 GiB
Duration : 1h 38mn
Overall bit rate : 3 168 Kbps
Movie name : Хичкок.(2012).BDRip720p.от.[NoLimits-Team].[mitrian]
Encoded date : UTC 2010-02-22 21:41:31
Writing application : mkvmerge v5.9.0 ('On The Loose') built on Dec 9 2012 15:37:01
Writing library : libebml v1.3.0 + libmatroska v1.4.0

Video
ID : 1
Format : AVC
Format/Info : Advanced Video Codec
Format profile : High@L4.1
Format settings, CABAC : Yes
Format settings, ReFrames : 12 frames
Codec ID : V_MPEG4/ISO/AVC
Duration : 1h 38mn
Bit rate : 2 529 Kbps
Width : 1 280 pixels
Height : 534 pixels
Display aspect ratio : 2.40:1
Original display aspect ratio : 2.40:1
Frame rate mode : Constant
Frame rate : 23.976 fps
Color space : YUV
Chroma subsampling : 4:2:0
Bit depth : 8 bits
Scan type : Progressive
Bits/(Pixel*Frame) : 0.154
Stream size : 1.69 GiB (78%)
Title : Хичкок (2012) BDRip 720p от NoLimits-Team
Writing library : x264 core 129 r2230 1cffe9f
Encoding settings : cabac=1 / ref=12 / deblock=1:0:0 / analyse=0x3:0x113 / me=umh / subme=10 / psy=1 / psy_rd=1.00:0.10 / mixed_ref=1 / me_range=32 / chroma_me=1 / trellis=2 / 8x8dct=1 / cqm=0 / deadzone=21,11 / fast_pskip=0 / chroma_qp_offset=-3 / threads=6 / lookahead_threads=1 / sliced_threads=0 / slices=4 / nr=0 / decimate=0 / interlaced=0 / bluray_compat=0 / constrained_intra=0 / bframes=5 / b_pyramid=2 / b_adapt=2 / b_bias=0 / direct=3 / weightb=1 / open_gop=0 / weightp=2 / keyint=240 / keyint_min=24 / scenecut=40 / intra_refresh=0 / rc_lookahead=60 / rc=2pass / mbtree=1 / bitrate=2529 / ratetol=2.0 / qcomp=0.60 / qpmin=0 / qpmax=51 / qpstep=4 / cplxblur=20.0 / qblur=0.5 / ip_ratio=1.40 / aq=1:1.00
Language : English
Default : Yes
Forced : No

Audio
ID : 2
Format : AC-3
Format/Info : Audio Coding 3
Mode extension : CM (complete main)
Format settings, Endianness : Big
Codec ID : A_AC3
Duration : 1h 38mn
Bit rate mode : Constant
Bit rate : 640 Kbps
Channel(s) : 6 channels
Channel positions : Front: L C R, Side: L R, LFE
Sampling rate : 48.0 KHz
Bit depth : 16 bits
Compression mode : Lossy
Stream size : 450 MiB (20%)
Title : Дубляж
Language : Russian
Default : Yes
Forced : No

Menu
00:00:00.000 : en:00:00:00.000
00:10:00.000 : en:00:10:00.000
00:20:00.000 : en:00:20:00.000
00:30:00.000 : en:00:30:00.000
00:40:00.000 : en:00:40:00.000
00:50:00.000 : en:00:50:00.000
01:00:00.000 : en:01:00:00.000
01:10:00.000 : en:01:10:00.000
01:20:00.000 : en:01:20:00.000






Релиз Группа | Автор Рипа:



   Похожие торренты   Торрент   Размер 
В этой теме нет новых непрочитанных сообщений. Хичкок / Hitchcock (2012) BDRip 1080p от NoLimits-Team

15 | 3

4.37 ГБ

В этой теме нет новых непрочитанных сообщений. Хичкок / Hitchcock (2012) BDRip 720p | Лицензия

3 | 2

4.2 ГБ

В этой теме нет новых непрочитанных сообщений. Хичкок / Hitchcock (2012) BDRip 720p | Лицензия

20 | 17

5.07 ГБ

В этой теме нет новых непрочитанных сообщений. Хичкок / Hitchcock (2012) BDRip 720p от R.G. 25 Кадр | D | Лицензия

9 | 24

2.15 ГБ

В этой теме нет новых непрочитанных сообщений. Хичкок / Hitchcock (2012) BDRip 720p от HQ-ViDEO | Лицензия

9 | 3

4.18 ГБ

В этой теме нет новых непрочитанных сообщений. Хичкок / Hitchcock (2012) BDRip-AVC | Лицензия

6 | 2

1.46 ГБ

В этой теме нет новых непрочитанных сообщений. Хичкок / Hitchcock (2012) BDRip-AVC | iPad

0 | 2

1.25 ГБ




Вы не можете начинать темы
Вы не можете отвечать на сообщения
Вы не можете редактировать свои сообщения
Вы не можете удалять свои сообщения
Вы не можете добавлять вложения

Перейти:  
Для Мосгорсуда, Роскомнадзора и рекламодателей: mosgorsud-torrent[собачка]yandex.ru
 Вход
ppkBB3cker v.2 © 2008-2014 @ PPK
[ Time : 0.049s | 18 Queries | GZIP : Off ]

cron