img image001 image001 image001 image001 image001 image001 image001 image001 image001 image001 image001 image001 image001 image001 image001

Planets Sun Sun Sun
Статистика раздачи
Автор: Снежана | Размер: 4.37 ГБ | Добавлен: 23 июл 2013
Раздают: 20    Качают: 8
Скачать торрент
Скачать торрент
Описание торрента

СообщениеДобавлено: 23 июл 2013 

#77

Информация о фильме
Название: Кон-Тики
Оригинальное название: Kon-Tiki
Год выхода: 2012
Жанр: Боевик, драма, приключения, биография, история
Режиссер: Хоаким Роннинг, Эспен Сандберг
В ролях: Пал Сверре Валхейм Хэйген, Андерс Баасмо Кристиансен, Густаф Скарсгард, Одд Магнус Уильямсон, Тобиас Зантелман, Якоб Офтебро, Агнес Киттелсен, Томас Арнольд, Йорген Бертаге, Элинор Бурк, Мануэль Коши, Сэм Чэпман, Стефан Кронуолл, Катинка Эгрес, Йен Кнауэр, Оле Слетнер, Ричард Триндер

Сюжет фильма:

«Через океан в поисках истины»

Приключенческая картина, в основе которой лежит подвиг всемирно известного путешественника Тура Хейердала, совершившего в 1947 году эпическую экспедицию — пересечение Тихого океана на маленьком шатком плотике Кон-Тики. Гигантские киты, схватки с голодными акулами, грозовой шторм, раздирающий ветер, битва за жизнь посреди бушующей стихии…. Героям предстоит проявить немалую силу и трудолюбие, чтобы этот день не стал последним. Это невероятное путешествие навсегда изменит людей, которые рискнули в него отправиться.



Выпущено: Великобритания, Норвегия, Дания, DCM Productions, Film i Väst, Nordisk Film Production, Recorded
Продолжительность: 01:49:12
Перевод: Дублированный
Субтитры: нет
Чаптеры: нет
Файл
Качество: BDRip 720p (исходник Blu-ray Disc)
Видео: 1280х544, 5 092 Kbps Кбит/сек, 25.000 кадр/сек, AVC, x264, 0.293 Бит/(Пиксели*Кадры), 2-pass
Аудио: AC-3, 640 Кбит/сек, 6 канала(ов), 48,0 КГц



Format : Matroska
Format version : Version 4 / Version 2
File size : 4.37 GiB
Duration : 1h 49mn
Overall bit rate : 5 734 Kbps
Movie name : Кон-Тики.(2012).BDRip.720p.NoLimits-Team
Encoded date : UTC 2013-06-04 05:45:47
Writing application : mkvmerge v6.2.0 ('Promised Land') built on Apr 28 2013 12:22:01
Writing library : libebml v1.3.0 + libmatroska v1.4.0

Video
ID : 1
Format : AVC
Format/Info : Advanced Video Codec
Format profile : High@L4.1
Format settings, CABAC : Yes
Format settings, ReFrames : 12 frames
Codec ID : V_MPEG4/ISO/AVC
Duration : 1h 49mn
Bit rate : 5 092 Kbps
Width : 1 280 pixels
Height : 544 pixels
Display aspect ratio : 2.35:1
Frame rate mode : Constant
Frame rate : 25.000 fps
Color space : YUV
Chroma subsampling : 4:2:0
Bit depth : 8 bits
Scan type : Progressive
Bits/(Pixel*Frame) : 0.293
Stream size : 3.80 GiB (87%)
Title : Кон-Тики.(2012).BDRip.720p.от NoLimits-Team
Writing library : x264 core 132 r2310 76a5c3a
Encoding settings : cabac=1 / ref=12 / deblock=1:0:0 / analyse=0x3:0x113 / me=umh / subme=11 / psy=1 / psy_rd=1.00:0.10 / mixed_ref=1 / me_range=64 / chroma_me=1 / trellis=2 / 8x8dct=1 / cqm=0 / deadzone=21,11 / fast_pskip=0 / chroma_qp_offset=-3 / threads=6 / lookahead_threads=1 / sliced_threads=0 / nr=0 / decimate=0 / interlaced=0 / bluray_compat=0 / constrained_intra=0 / bframes=14 / b_pyramid=2 / b_adapt=2 / b_bias=0 / direct=3 / weightb=1 / open_gop=0 / weightp=2 / keyint=250 / keyint_min=25 / scenecut=40 / intra_refresh=0 / rc_lookahead=60 / rc=2pass / mbtree=1 / bitrate=5092 / ratetol=1.0 / qcomp=0.60 / qpmin=0 / qpmax=69 / qpstep=4 / cplxblur=20.0 / qblur=0.5 / ip_ratio=1.40 / aq=1:0.95
Language : English
Default : Yes
Forced : No

Audio
ID : 2
Format : AC-3
Format/Info : Audio Coding 3
Mode extension : CM (complete main)
Format settings, Endianness : Big
Codec ID : A_AC3
Duration : 1h 49mn
Bit rate mode : Constant
Bit rate : 640 Kbps
Channel(s) : 6 channels
Channel positions : Front: L C R, Side: L R, LFE
Sampling rate : 48.0 KHz
Bit depth : 16 bits
Compression mode : Lossy
Stream size : 500 MiB (11%)
Title : Дублированный
Language : Russian
Default : Yes
Forced : No



Релиз Группа | Автор Рипа:



   Похожие торренты   Торрент   Размер 
В этой теме нет новых непрочитанных сообщений. Кон-Тики / Kon-Tiki (2012) BDRip 720p | А

11 | 2

7.18 ГБ

В этой теме нет новых непрочитанных сообщений. Кон-Тики / Kon-Tiki (2012) BDRip 720p | Лицензия

110 | 3

6.35 ГБ

В этой теме нет новых непрочитанных сообщений. Кон-Тики / Kon-Tiki (2012) BDRip-AVC | А

26 | 3

1.45 ГБ

В этой теме нет новых непрочитанных сообщений. Кон-Тики / Kon-Tiki (2012) BDRip 1080p

45 | 7

5.77 ГБ

В этой теме нет новых непрочитанных сообщений. Кон-Тики / Kon-Tiki (2012) BDRip-AVC | iPad

3 | 2

2.65 ГБ

В этой теме нет новых непрочитанных сообщений. Кон-Тики / Kon-Tiki (2012) BDRip от HQCLUB

718 | 38

2.18 ГБ

В этой теме нет новых непрочитанных сообщений. Кон-Тики / Kon-Tiki (2012) BDRip-AVC | Лицензия

30 | 3

2.18 ГБ




Вы не можете начинать темы
Вы не можете отвечать на сообщения
Вы не можете редактировать свои сообщения
Вы не можете удалять свои сообщения
Вы не можете добавлять вложения

Перейти:  
Для Мосгорсуда, Роскомнадзора и рекламодателей: mosgorsud-torrent[собачка]yandex.ru
 Вход
ppkBB3cker v.2 © 2008-2014 @ PPK
[ Time : 0.051s | 18 Queries | GZIP : Off ]

cron