img image001 image001 image001 image001 image001 image001 image001 image001 image001 image001 image001 image001 image001 image001 image001 image001

Planets Sun Sun Sun
Статистика раздачи
Автор: Снежана | Размер: 3.07 ГБ | Добавлен: 23 июл 2013
Раздают: 4    Качают: 4
Скачать торрент
Скачать торрент
Описание торрента

СообщениеДобавлено: 23 июл 2013 

#77

Страна: Великобритания
Жанр: драма, приключения, история
Год выпуска: 1986
Продолжительность: 02:05:05
Перевод: Профессиональный (многоголосый, закадровый) + Профессиональный (двухголосый, закадровый)[ "Екатеринбург Арт" ] + Профессиональный (двухголосый, закадровый) + Оригинальный
Субтитры: русские, английские, английские[ SDH ]


Режиссер: Роланд Жоффе / Roland Joffé


В ролях: Роберт Де Ниро (Rodrigo Mendoza), Джереми Айронс (Father Gabriel), Рэй МакЭнэлли (Altamirano), Эйдан Куинн (Felipe Mendoza), Шери Лунги (Carlotta), Рональд Пикап (Hontar), Чак Лоу (Cabeza), Лиам Нисон (Fielding), Берселио Мойя (Indian Boy), Зигифредо Исмаре (Witch Doctor), Асунсьон Онтиверос (Indian Chief), Алехандрино Мойя (Chief's Lieutenant)


Описание: Река, протекающая сквозь густые джунгли, несет замученного иезуитского священника, привязанного к грубо сколоченному кресту. Распятие проносится через скалистые стремнины и в один момент, полный ужаса и завораживающей красоты, обрушивается вниз с 70-метровой высоты и исчезает в рокочущем водопаде. Этой сценой открывается один из самых зрелищных фильмов в истории кино, о человеке со шпагой и человеке в капюшоне, объединившихся, чтобы защитить индейское племя от колониальных империй 18-го века...




MPAA: PG - Рекомендуется присутствие родителей


Семпл


Качество: BDRip
Контейнер: MKV

Видео: AVC, 1024x426 (2.40:1), 2165 kbps, 23.976 fps, 0.207 bpp
Аудио №1: русский / AC3 / 5.1 / 48 kHz / 384 kbps
Аудио №2: русский / AC3 / 2.0 / 48 kHz / 192 kbps
Аудио №3: русский / AC3 / 5.1 / 48 kHz / 384 kbps
Аудио №4: английский / AC3 / 5.1 / 48 kHz / 384 kbps
Навигация по главам: есть


General
Unique ID : 228167958003448173966413514402797028405 (0xABA78CDE49D9C102A55F72BB9DB18435)
Complete name : C:BluRayMissija.BDRipAVC.mkv
Format : Matroska
Format version : Version 2
File size : 3.07 GiB
Duration : 2h 5mn
Overall bit rate : 3 508 Kbps
Movie name : = Миссия / The Mission BDRip by SC Kosmos =
Encoded date : UTC 2013-06-19 08:27:50
Writing application : mkvmerge v3.3.0 ('Language') gebaut am Mar 24 2010 14:59:24
Writing library : libebml v0.8.0 + libmatroska v0.9.0

Video
ID : 1
Format : AVC
Format/Info : Advanced Video Codec
Format profile : High@L4.1
Format settings, CABAC : Yes
Format settings, ReFrames : 14 frames
Codec ID : V_MPEG4/ISO/AVC
Duration : 2h 5mn
Bit rate : 2 165 Kbps
Width : 1 024 pixels
Height : 426 pixels
Display aspect ratio : 2.40:1
Frame rate : 23.976 fps
Color space : YUV
Chroma subsampling : 4:2:0
Bit depth : 8 bits
Scan type : Progressive
Bits/(Pixel*Frame) : 0.207
Stream size : 1.83 GiB (60%)
Title : Миссия / The Mission BDRip by SC Kosmos
Writing library : x264 core 133 r2334 a3ac64b
Encoding settings : cabac=1 / ref=14 / deblock=1:-3:-3 / analyse=0x3:0x112 / me=umh / subme=10 / psy=1 / psy_rd=1.00:0.15 / mixed_ref=1 / me_range=32 / chroma_me=1 / trellis=2 / 8x8dct=1 / cqm=0 / deadzone=21,11 / fast_pskip=0 / chroma_qp_offset=-3 / threads=12 / lookahead_threads=1 / sliced_threads=0 / nr=0 / decimate=1 / interlaced=0 / bluray_compat=0 / constrained_intra=0 / bframes=10 / b_pyramid=2 / b_adapt=1 / b_bias=0 / direct=3 / weightb=1 / open_gop=0 / weightp=1 / keyint=240 / keyint_min=23 / scenecut=40 / intra_refresh=0 / rc_lookahead=30 / rc=2pass / mbtree=1 / bitrate=2165 / ratetol=1.0 / qcomp=0.60 / qpmin=0 / qpmax=69 / qpstep=4 / cplxblur=20.0 / qblur=0.5 / vbv_maxrate=50000 / vbv_bufsize=50000 / nal_hrd=none / ip_ratio=1.40 / aq=1:1.00 / zones=175060,179802,b=0.27
Language : English
Default : No
Forced : No

Audio #1
ID : 2
Format : AC-3
Format/Info : Audio Coding 3
Mode extension : CM (complete main)
Codec ID : A_AC3
Duration : 2h 5mn
Bit rate mode : Constant
Bit rate : 384 Kbps
Channel(s) : 6 channels
Channel positions : Front: L C R, Side: L R, LFE
Sampling rate : 48.0 KHz
Bit depth : 16 bits
Compression mode : Lossy
Stream size : 344 MiB (11%)
Language : Russian
Default : Yes
Forced : No

Audio #2
ID : 3
Format : AC-3
Format/Info : Audio Coding 3
Mode extension : CM (complete main)
Codec ID : A_AC3
Duration : 2h 5mn
Bit rate mode : Constant
Bit rate : 192 Kbps
Channel(s) : 2 channels
Channel positions : Front: L R
Sampling rate : 48.0 KHz
Bit depth : 16 bits
Compression mode : Lossy
Stream size : 172 MiB (5%)
Title : DVO [ "Екатеринбург Арт" ]
Language : Russian
Default : No
Forced : No

Audio #3
ID : 4
Format : AC-3
Format/Info : Audio Coding 3
Mode extension : CM (complete main)
Codec ID : A_AC3
Duration : 2h 5mn
Bit rate mode : Constant
Bit rate : 384 Kbps
Channel(s) : 6 channels
Channel positions : Front: L C R, Side: L R, LFE
Sampling rate : 48.0 KHz
Bit depth : 16 bits
Compression mode : Lossy
Stream size : 344 MiB (11%)
Title : DVO
Language : Russian
Default : No
Forced : No

Audio #4
ID : 5
Format : AC-3
Format/Info : Audio Coding 3
Mode extension : CM (complete main)
Codec ID : A_AC3
Duration : 2h 5mn
Bit rate mode : Constant
Bit rate : 384 Kbps
Channel(s) : 6 channels
Channel positions : Front: L C R, Side: L R, LFE
Sampling rate : 48.0 KHz
Bit depth : 16 bits
Compression mode : Lossy
Stream size : 344 MiB (11%)
Language : English
Default : No
Forced : No

Text #1
ID : 6
Format : UTF-8
Codec ID : S_TEXT/UTF8
Codec ID/Info : UTF-8 Plain Text
Language : Russian
Default : Yes
Forced : No

Text #2
ID : 7
Format : UTF-8
Codec ID : S_TEXT/UTF8
Codec ID/Info : UTF-8 Plain Text
Language : English
Default : No
Forced : No

Text #3
ID : 8
Format : UTF-8
Codec ID : S_TEXT/UTF8
Codec ID/Info : UTF-8 Plain Text
Title : [ SDH ]
Language : English
Default : No
Forced : No

Menu
00:00:00.000 : en:Chapter 01
00:09:48.588 : en:Chapter 02
00:22:35.562 : en:Chapter 03
00:35:24.372 : en:Chapter 04
00:46:34.708 : en:Chapter 05
00:54:24.970 : en:Chapter 06
01:05:37.350 : en:Chapter 07
01:14:53.614 : en:Chapter 08
01:26:21.092 : en:Chapter 09
01:35:42.486 : en:Chapter 10
01:44:40.732 : en:Chapter 11
01:53:08.782 : en:Chapter 12
02:04:59.241 : en:Chapter 13










За звуковые дорожки и субтитры огромное спасибо - sociolog_melvas



   Похожие торренты   Торрент   Размер 
В этой теме нет новых непрочитанных сообщений. Миссия / The Mission (1986) BDRip от HQ-ViDEO

325 | 22

2.18 ГБ

В этой теме нет новых непрочитанных сообщений. Миссия на Марс / Mission to Mars (2000) BDRip-AVC | P2, A

111 | 9

2.18 ГБ

В этой теме нет новых непрочитанных сообщений. Миссия: невыполнима 2 / Mission: Impossible II (2000) BDRip от HQ-ViDEO

798 | 86

2.18 ГБ

В этой теме нет новых непрочитанных сообщений. Миссия: невыполнима 3 / Mission: Impossible III (2006) BDRip от HQ-ViDEO

1382 | 128

2.18 ГБ

В этой теме нет новых непрочитанных сообщений. Миссия невыполнима / Mission: Impossible (1996) BDRip-AVC от HELLYWOOD

172 | 16

2.18 ГБ

В этой теме нет новых непрочитанных сообщений. Миссия: невыполнима / Mission: Impossible (1996) BDRip от HQ-ViDEO

788 | 93

2.18 ГБ

В этой теме нет новых непрочитанных сообщений. Миссия: невыполнима 2 / Mission: Impossible II (2000) BDRip от New-Team | D, P

59 | 8

2.18 ГБ




Вы не можете начинать темы
Вы не можете отвечать на сообщения
Вы не можете редактировать свои сообщения
Вы не можете удалять свои сообщения
Вы не можете добавлять вложения

Перейти:  
 Вход
ppkBB3cker v.2 © 2008-2014 @ PPK
[ Time : 0.047s | 17 Queries | GZIP : Off ]

cron