img image001 image001 image001 image001 image001 image001 image001 image001 image001 image001 image001 image001 image001 image001 image001

Planets Sun Sun Sun
Статистика раздачи
Автор: Снежана | Размер: 1.7 ГБ | Добавлен: 23 июл 2013
Раздают: 2    Качают: 6
Скачать торрент
Скачать торрент
Описание торрента

СообщениеДобавлено: 23 июл 2013 

#77

Информация о фильме
Название: Война Люси
Оригинальное название: Lucie Aubrac
Год выхода: 1997
Жанр: Драма, биография
Режиссер: Клод Берри / Claude Berri
В ролях: Кароль Буке / Carole Bouquet, Даниель Отой / Daniel Auteuil, Патрис Шеро / Patrice Chéreau, Жан-Роже Мило / Jean-Roger Milo, Эрик Бучер / Eric Boucher, Хайно Ферх / Heino Ferch, Бернар Верле / Bernard Verley, Жан Мартен / Jean Martin, Мари Пийе / Marie Pillet, Максим Генри / Maxime Henry, Ален Маратрат / Alain Maratrat, Франк де ла Персонн / Franck de la Personne, Паскаль Греггори / Pascal Greggory

О фильме:
Супруги Раймон и Люси сражаются с немецкими оккупантами в рядах французского Сопротивления. После взрыва поезда с боеприпасами Раймон попадает в гестапо, но мужество, находчивость и обаяние Люси помогают ему спастись. Но когда Раймона арестовывают второй раз, во время конспиративной встречи лидеров Сопротивления, надежды на спасение не остается. После жестоких пыток Раймона приговаривают к смертной казни. Люси, которой остается надеяться только на себя, предпринимает последнюю попытку спасти любимого мужа…

Страна: Франция
Студия: Centre National de la Cinématographie (CNC), D.A. Films, October Films
Продолжительность: 01:51:09
Перевод: Профессиональный (многоголосый, закадровый) R5

Файл
Кодек: h.264
Качество: DVDRip-AVC
Видео: 704x432 (2.35:1) @ 1018x432 (анаморф), 25.000 fps, AVC, ~1414 Kbps, 0.186 bits/pixel
Звук:
Французский, 48.0 KHz, AC3, 6 ch, 384 Kbps
Русский, 48.0 KHz, AC3, 6 ch, 384 Kbps
Субтитры: Русские, VobSub

Исходник R5 DVD9

Общее
Уникальный идентификатор : 230583465392878666999169493836080145843 (0xAD78C293D2393BE38023CC7C04A8E5B3)
Полное имя : D:FilmsVoyna_Luci.1997.DVDRip-AVC.mkv
Формат : Matroska
Версия формата : Version 4 / Version 2
Размер файла : 1,70 Гбайт
Продолжительность : 1 ч. 51 м.
Общий поток : 2185 Кбит/сек
Дата кодирования : UTC 2013-07-07 15:34:47
Программа кодирования : mkvmerge v6.2.0 ('Promised Land') built on Apr 28 2013 12:22:01
Библиотека кодирования : libebml v1.3.0 + libmatroska v1.4.0

Видео
Идентификатор : 1
Формат : AVC
Формат/Информация : Advanced Video Codec
Профиль формата : High@L4.1
Параметр CABAC формата : Да
Параметр ReFrames формата : 16 кадров
Идентификатор кодека : V_MPEG4/ISO/AVC
Продолжительность : 1 ч. 51 м.
Битрейт : 1414 Кбит/сек
Ширина : 704 пикселя
Высота : 432 пикселя
Соотношение сторон : 2,35:1
Соотношение сторон в оригинале : 2,35:1
Режим частоты кадров : Постоянный
Частота кадров : 25,000 кадров/сек
Цветовое пространство : YUV
Субдискретизация насыщенности : 4:2:0
Битовая глубина : 8 бит
Тип развёртки : Прогрессивная
Бит/(Пиксели*Кадры) : 0.186
Размер потока : 1,07 Гбайт (63%)
Библиотека кодирования : x264 core 133 r2334 a3ac64b
Настройки программы : cabac=1 / ref=16 / deblock=1:0:0 / analyse=0x3:0x133 / me=umh / subme=10 / psy=1 / psy_rd=1.05:0.10 / mixed_ref=1 / me_range=32 / chroma_me=1 / trellis=2 / 8x8dct=1 / cqm=0 / deadzone=21,11 / fast_pskip=0 / chroma_qp_offset=-3 / threads=8 / lookahead_threads=2 / sliced_threads=0 / nr=0 / decimate=0 / interlaced=0 / bluray_compat=0 / constrained_intra=0 / bframes=10 / b_pyramid=2 / b_adapt=2 / b_bias=0 / direct=3 / weightb=1 / open_gop=0 / weightp=2 / keyint=250 / keyint_min=25 / scenecut=40 / intra_refresh=0 / rc_lookahead=60 / rc=2pass / mbtree=0 / bitrate=1414 / ratetol=1.0 / qcomp=0.60 / qpmin=0 / qpmax=60 / qpstep=4 / cplxblur=20.0 / qblur=0.5 / vbv_maxrate=50000 / vbv_bufsize=62500 / nal_hrd=none / ip_ratio=1.40 / pb_ratio=1.30 / aq=1:1.00
Default : Нет
Forced : Нет
Коэффициенты матрицы : BT.601

Аудио #1
Идентификатор : 2
Формат : AC-3
Формат/Информация : Audio Coding 3
Расширение режима : CM (complete main)
Параметр Endianness формата : Big
Идентификатор кодека : A_AC3
Продолжительность : 1 ч. 51 м.
Вид битрейта : Постоянный
Битрейт : 384 Кбит/сек
Каналы : 6 каналов
Расположение каналов : Front: L C R, Side: L R, LFE
Частота : 48,0 КГц
Битовая глубина : 16 бит
Метод сжатия : С потерями
Размер потока : 305 Мбайт (18%)
Язык : French
Default : Нет
Forced : Нет

Аудио #2
Идентификатор : 3
Формат : AC-3
Формат/Информация : Audio Coding 3
Расширение режима : CM (complete main)
Параметр Endianness формата : Big
Идентификатор кодека : A_AC3
Продолжительность : 1 ч. 51 м.
Вид битрейта : Постоянный
Битрейт : 384 Кбит/сек
Каналы : 6 каналов
Расположение каналов : Front: L C R, Side: L R, LFE
Частота : 48,0 КГц
Битовая глубина : 16 бит
Метод сжатия : С потерями
Размер потока : 305 Мбайт (18%)
Язык : Russian
Default : Да
Forced : Нет

Текст
Идентификатор : 4
Формат : VobSub
Режим смешивания : zlib
Идентификатор кодека : S_VOBSUB
Идентификатор кодека/Информация : The same subtitle format used on DVDs
Язык : Russian
Default : Нет
Forced : Нет

Меню
00:00:00.000 : en:Chapter 01
00:08:35.840 : en:Chapter 02
00:14:23.120 : en:Chapter 03
00:17:42.240 : en:Chapter 04
00:21:06.360 : en:Chapter 05
00:26:28.160 : en:Chapter 06
00:38:54.000 : en:Chapter 07
00:43:36.760 : en:Chapter 08
00:47:44.160 : en:Chapter 09
00:58:33.400 : en:Chapter 10
01:04:57.680 : en:Chapter 11
01:10:26.600 : en:Chapter 12
01:15:29.680 : en:Chapter 13
01:21:04.720 : en:Chapter 14
01:26:45.000 : en:Chapter 15
01:31:47.160 : en:Chapter 16
01:37:12.520 : en:Chapter 17
01:47:54.880 : en:Chapter 18


frame I:1021 Avg QP:14.32 size: 45715
frame P:35220 Avg QP:17.32 size: 15781
frame B:130491 Avg QP:18.79 size: 4413



Релиз от: Temperest



   Похожие торренты   Торрент   Размер 
В этой теме нет новых непрочитанных сообщений. Война Люси / Lucie Aubrac (1997) DVDRip - Generalfilm

7 | 3

1.46 ГБ

В этой теме нет новых непрочитанных сообщений. Шарль и Люси / Charles et Lucie (1979) DVDRip | P

38 | 3

1.46 ГБ

В этой теме нет новых непрочитанных сообщений. Пепи, Люси, Бом и остальные девушки / Pepi, Luci, Bom y otras chicas del montón (1980) DVDRip от Temperest

15 | 2

1.37 ГБ

В этой теме нет новых непрочитанных сообщений. О, что за чудесная война / Oh! What a Lovely War (1969) DVDRip-AVC от Temperest

46 | 9

2.05 ГБ

В этой теме нет новых непрочитанных сообщений. Ставки сделаны / Rien ne va plus (1997) DVDRip-AVC от Temperest

198 | 64

1.72 ГБ

В этой теме нет новых непрочитанных сообщений. Китайская шкатулка / Chinese box (1997) DVDRip-AVC от Temperest

5 | 3

1.91 ГБ

В этой теме нет новых непрочитанных сообщений. Генеалогия преступления / Généalogies d'un crime (1997) DVDRip-AVC от Temperest

39 | 19

1.54 ГБ




Вы не можете начинать темы
Вы не можете отвечать на сообщения
Вы не можете редактировать свои сообщения
Вы не можете удалять свои сообщения
Вы не можете добавлять вложения

Перейти:  
Для Мосгорсуда, Роскомнадзора и рекламодателей: mosgorsud-torrent[собачка]yandex.ru
 Вход
ppkBB3cker v.2 © 2008-2014 @ PPK
[ Time : 0.027s | 16 Queries | GZIP : Off ]

cron