img image001 image001 image001 image001 image001 image001 image001 image001 image001 image001 image001 image001 image001 image001 image001

Planets Sun Sun Sun
Статистика раздачи
Автор: Снежана | Размер: 4.33 ГБ | Добавлен: 23 июл 2013
Раздают: 42    Качают: 6
Скачать торрент
Скачать торрент
Описание торрента

СообщениеДобавлено: 23 июл 2013 

#77


«Его учили выполнять приказ. Но он стал героем, нарушив его»


Информация о фильме
Название: Слезы Солнца
Оригинальное название: Tears of the Sun
Год выхода: 2003
Жанр: Боевик, триллер, драма, военный
Режиссер: Антуан Фукуа
В ролях: Брюс Уиллис, Моника Беллуччи, Коул Хаузер, Имонн Уолкер, Джонни Месснер, Ник Чинланд, Чарльз Ингрэм, Пол Френсис, Чад Смит, Том Скеррит, Малик Боуэнс, Авовиейи Агие, Акошуа Бусиа, Хадар Бусиа-Синглтон, Ида Оньянго, Фабрис Яхве Хабимана мл., Сэмми Ротиби, Бенжамин Оченг, Джимми Жан-Луи, Фионнула Флэнаган, Корнелия Хэйес О’Херлихи, Пьеррино Маскарино, Питер Менса, Ховард Манго, Канайо Чиемелу, Нкеоне Нванкво, Альфа Осман Дэвис, Моррис Сесай, Кле Шахид Слоун, Кобби Данкьи, Лахай Фанбулье, Эллисон Дин, Родни Чарльз, Джевел МакДональд, Джордж Рейд, Янник Дот, Усман Салл, Гарри Ван Горкум, Майкл Клоссин

О фильме:
Команда по выполнению спецопераций особой сложности послана в джунгли, в самое сердце Нигерии. Задача отважных ребят — разыскать и освободить из плена врача. Когда они находят несчастную женщину в забытой богом деревеньке, выясняется, что характер операции надо срочно менять: врач заявляет, что покинет джунгли, только если вместе с ней спецбригада прихватит еще 70 человек беженцев.


Страна: США
Студия: Cheyenne Enterprises, Michael Lobell Productions, Revolution Studios
Продолжительность: 02:00:55
Перевод: Дублированный, профессиональный (многоголосый закадровый), авторский (одноголосый закадровый)

Файл
Кодек: h.264
Качество: BDRip-AVC
Видео: 2820 Кбит/с, 1024x428, 23.976 кадр/с

Звук:
• №1: Русский (AC3, 6 ch, 384 Кбит/с) / Дублированный
• №2: Русский (AC3, 6 ch, 384 Кбит/с) / Профессиональный многоголосый #1
• №3: Английский (AC3, 6 ch, 384 Кбит/с)
Отдельно:
• №4: Русский (AC3, 6 ch, 384 Кбит/с) / Профессиональный многоголосый #2
• №5: Русский (AC3, 6 ch, 384 Кбит/с) / Авторский одноголосый [Антон Карповский]
• №6: Украинский (AC3, 2 ch, 192 Кбит/с) / Профессиональный многоголосый [Так Треба Продакшн]
• №7: Украинский (AC3, 2 ch, 192 Кбит/с) / Профессиональный двухголосый [1+1]

Субтитры: Русские, английские

Полное имя : Slezi.Solnca.2003.x264.BDRip.(AVC).0ptimus_ALL.AUDIO.IN.mkv
Формат : Matroska
Версия формата : Version 4 / Version 2
Размер файла : 4,33 Гбайт
Продолжительность : 2 ч. 0 м.
Общий поток : 5127 Кбит/сек
Название фильма : Слезы солнца | Tears of the Sun [2003] -=BDRip (AVC) by 0ptimus=-
Дата кодирования : UTC 2013-07-12 11:58:25
Программа кодирования : mkvmerge v6.1.0 ('Old Devil') built on Mar 2 2013 14:32:37
Библиотека кодирования : libebml v1.3.0 + libmatroska v1.4.0

Видео
Идентификатор : 1
Формат : AVC
Формат/Информация : Advanced Video Codec
Профиль формата : High@L4.1
Параметр CABAC формата : Да
Параметр ReFrames формата : 9 кадров
Идентификатор кодека : V_MPEG4/ISO/AVC
Продолжительность : 2 ч. 0 м.
Битрейт : 2820 Кбит/сек
Ширина : 1024 пикселя
Высота : 428 пикселей
Соотношение сторон : 2,40:1
Частота кадров : 23,976 кадра/сек
Цветовое пространство : YUV
Субдискретизация насыщенности : 4:2:0
Битовая глубина : 8 бит
Тип развёртки : Прогрессивная
Бит/(Пиксели*Кадры) : 0.268
Размер потока : 2,30 Гбайт (53%)
Заголовок : Rip by 0ptimus
Библиотека кодирования : x264 core 132 r2310 76a5c3a
Настройки программы : cabac=1 / ref=9 / deblock=1:-3:-3 / analyse=0x3:0x113 / me=umh / subme=11 / psy=1 / psy_rd=1.00:0.20 / mixed_ref=1 / me_range=32 / chroma_me=1 / trellis=2 / 8x8dct=1 / cqm=0 / deadzone=21,11 / fast_pskip=0 / chroma_qp_offset=-3 / threads=4 / lookahead_threads=1 / sliced_threads=0 / nr=0 / decimate=0 / interlaced=0 / bluray_compat=0 / constrained_intra=0 / bframes=12 / b_pyramid=2 / b_adapt=2 / b_bias=0 / direct=3 / weightb=1 / open_gop=0 / weightp=2 / keyint=240 / keyint_min=23 / scenecut=40 / intra_refresh=0 / rc_lookahead=40 / rc=2pass / mbtree=0 / bitrate=2820 / ratetol=1.0 / qcomp=0.60 / qpmin=0 / qpmax=69 / qpstep=4 / cplxblur=20.0 / qblur=0.5 / vbv_maxrate=50000 / vbv_bufsize=50000 / nal_hrd=none / ip_ratio=1.40 / pb_ratio=1.30 / aq=1:1.00
Язык : English

Аудио #1
Идентификатор : 2
Формат : AC-3
Формат/Информация : Audio Coding 3
Расширение режима : CM (complete main)
Идентификатор кодека : A_AC3
Продолжительность : 2 ч. 0 м.
Вид битрейта : Постоянный
Битрейт : 384 Кбит/сек
Каналы : 6 каналов
Расположение каналов : Front: L C R, Side: L R, LFE
Частота : 48,0 КГц
Битовая глубина : 16 бит
Метод сжатия : С потерями
Размер потока : 332 Мбайт (7%)
Заголовок : Дублированный AC3 5.1 384 kbps
Язык : Russian

Аудио #2
Идентификатор : 3
Формат : AC-3
Формат/Информация : Audio Coding 3
Расширение режима : CM (complete main)
Идентификатор кодека : A_AC3
Продолжительность : 2 ч. 0 м.
Вид битрейта : Постоянный
Битрейт : 384 Кбит/сек
Каналы : 6 каналов
Расположение каналов : Front: L C R, Side: L R, LFE
Частота : 48,0 КГц
Битовая глубина : 16 бит
Метод сжатия : С потерями
Размер потока : 332 Мбайт (7%)
Заголовок : Многоголосый закадровый AC3 5.1 384 kbps
Язык : Russian

Аудио #3
Идентификатор : 4
Формат : AC-3
Формат/Информация : Audio Coding 3
Расширение режима : CM (complete main)
Идентификатор кодека : A_AC3
Продолжительность : 2 ч. 0 м.
Вид битрейта : Постоянный
Битрейт : 384 Кбит/сек
Каналы : 6 каналов
Расположение каналов : Front: L C R, Side: L R, LFE
Частота : 48,0 КГц
Битовая глубина : 16 бит
Метод сжатия : С потерями
Размер потока : 332 Мбайт (7%)
Заголовок : Многоголосый закадровый AC3 5.1 384 kbps
Язык : Russian

Аудио #4
Идентификатор : 5
Формат : AC-3
Формат/Информация : Audio Coding 3
Расширение режима : CM (complete main)
Идентификатор кодека : A_AC3
Продолжительность : 2 ч. 0 м.
Вид битрейта : Постоянный
Битрейт : 384 Кбит/сек
Каналы : 6 каналов
Расположение каналов : Front: L C R, Side: L R, LFE
Частота : 48,0 КГц
Битовая глубина : 16 бит
Метод сжатия : С потерями
Размер потока : 332 Мбайт (7%)
Заголовок : Авторский [Антон Карповский] AC3 5.1 384 kbps
Язык : Russian

Аудио #5
Идентификатор : 6
Формат : AC-3
Формат/Информация : Audio Coding 3
Расширение режима : CM (complete main)
Идентификатор кодека : A_AC3
Продолжительность : 2 ч. 0 м.
Вид битрейта : Постоянный
Битрейт : 192 Кбит/сек
Каналы : 2 канала
Расположение каналов : Front: L R
Частота : 48,0 КГц
Битовая глубина : 16 бит
Метод сжатия : С потерями
Размер потока : 166 Мбайт (4%)
Заголовок : Многоголосый закадровый [Так Треба Продакшн] AC3 2.0 192 kbps
Язык : Ukrainian

Аудио #6
Идентификатор : 7
Формат : AC-3
Формат/Информация : Audio Coding 3
Расширение режима : CM (complete main)
Идентификатор кодека : A_AC3
Продолжительность : 2 ч. 0 м.
Вид битрейта : Постоянный
Битрейт : 192 Кбит/сек
Каналы : 2 канала
Расположение каналов : Front: L R
Частота : 48,0 КГц
Битовая глубина : 16 бит
Метод сжатия : С потерями
Размер потока : 166 Мбайт (4%)
Заголовок : Двухголосый закадровый [1+1] AC3 2.0 192 kbps
Язык : Ukrainian

Аудио #7
Идентификатор : 8
Формат : AC-3
Формат/Информация : Audio Coding 3
Расширение режима : CM (complete main)
Идентификатор кодека : A_AC3
Продолжительность : 2 ч. 0 м.
Вид битрейта : Постоянный
Битрейт : 384 Кбит/сек
Каналы : 6 каналов
Расположение каналов : Front: L C R, Side: L R, LFE
Частота : 48,0 КГц
Битовая глубина : 16 бит
Метод сжатия : С потерями
Размер потока : 332 Мбайт (7%)
Заголовок : AC3 5.1 384 kbps
Язык : English

Текст #1
Идентификатор : 9
Формат : UTF-8
Идентификатор кодека : S_TEXT/UTF8
Идентификатор кодека/Информация : UTF-8 Plain Text
Язык : Russian

Текст #2
Идентификатор : 10
Формат : UTF-8
Идентификатор кодека : S_TEXT/UTF8
Идентификатор кодека/Информация : UTF-8 Plain Text
Язык : English

Меню
00:00:00.000 : en:Start
00:07:31.826 : en:Somewhere Off the Coast of Africa
00:15:26.467 : en:Lt. Waters' Elite Squadron
00:23:23.568 : en:The Prime Objective
00:30:12.811 : en:St. Michael's Mission
00:36:49.665 : en:"I Will Not Leave Without My People."
00:45:13.544 : en:Evacuating the Mission
00:53:35.879 : en:Danger on the Trail
01:03:13.080 : en:Cleansing the House of God
01:09:24.493 : en:Objective Accomplished
01:16:02.891 : en:Burn Down the Mission
01:24:27.604 : en:"We Can Only Take Twelve."
01:32:14.820 : en:Possible Hostiles
01:39:17.826 : en:Ringside Seats to an Ethnic Cleansing
01:44:19.503 : en:Rule of Engagement Party
01:48:34.925 : en:"This Is What They Do."

--------------------------------------------------------------------
x264 [info]: frame I:1310 Avg QP:16.66 size: 68233
x264 [info]: frame P:39563 Avg QP:19.67 size: 28048
x264 [info]: frame B:133079 Avg QP:21.19 size: 10205
--------------------------------------------------------------------




Релиз от:



   Похожие торренты   Торрент   Размер 
В этой теме нет новых непрочитанных сообщений. Слезы солнца / Tears of the sun (2003) BDRip

13 | 5

1.45 ГБ

В этой теме нет новых непрочитанных сообщений. Слезы солнца / Tears Of The Sun (2003) BDRip от HQCLUB

131 | 5

2.18 ГБ

В этой теме нет новых непрочитанных сообщений. Слезы солнца / Tears of the Sun (2003) BDRip 1080p

47 | 5

7.76 ГБ

В этой теме нет новых непрочитанных сообщений. Слезы солнца / Tears of the sun (2003) BDRip 720p

7 | 6

4.33 ГБ

В этой теме нет новых непрочитанных сообщений. Слёзы Солнца / Tears of the Sun (2003) BDRip от FlintFilms

1 | 3

2.91 ГБ

В этой теме нет новых непрочитанных сообщений. Слезы солнца / Tears of the sun (2003) BDRip 1080p

0 | 2

8.26 ГБ

В этой теме нет новых непрочитанных сообщений. Слезы солнца / Tears of the Sun (2003) BDRip 1080p от R.G. HD-Films | 60 fps

39 | 17

13.28 ГБ




Вы не можете начинать темы
Вы не можете отвечать на сообщения
Вы не можете редактировать свои сообщения
Вы не можете удалять свои сообщения
Вы не можете добавлять вложения

Перейти:  
Для Мосгорсуда, Роскомнадзора и рекламодателей: mosgorsud-torrent[собачка]yandex.ru
 Вход
ppkBB3cker v.2 © 2008-2014 @ PPK
[ Time : 0.040s | 18 Queries | GZIP : Off ]

cron