img image001 image001 image001 image001 image001 image001 image001 image001 image001 image001 image001 image001 image001 image001 image001 image001

Planets Sun Sun Sun
Статистика раздачи
Автор: Снежана | Размер: 2.18 ГБ | Добавлен: 19 июл 2013
Раздают: 15    Качают: 1
Скачать торрент
Скачать торрент
Описание торрента

СообщениеДобавлено: 19 июл 2013 


Год выпуска: 2005
Страна: США
Жанр: Триллер, криминал
Продолжительность: 01:39:00
Перевод: Профессиональный (полное дублирование)
Русские субтитры: есть - forced

Режиссер: Дэвид Дж. Бурк / David J. Burke

В ролях: Морган Фриман, Кевин Спейси, Джастин Тимберлэйк, Дилан МакДермотт, Джон Херд, Кэри Элвис, Розелин Санчез, Дэмиен Уайанс, Гарфилд Уилсон и др.

Описание: Раскрыв логово коррумпированных полицейских, дерзкий молодой журналист Джош Поллак создает неожиданный союз с известным репортером и следователем, чтобы вывести преступников на чистую воду. Предмет расследования Поллака — элитное подразделение полицейского спецназа города Эдисона, в распоряжении которого всевозможное оружие — от М-11 до Glock-45.
Начав расследование, он навлекает на себя гнев полицейского начальства, и когда в тюрьме устраняют единственного свидетеля, вскоре становится ясно, что следующей жертвой станет сам журналист. В рискованной игре на грани жизни и смерти у кого-то обязательно сдадут нервы, и когда правосудие и беззаконие столкнутся в неравной схватке, каждому придется сделать свой нелегкий и смертельно опасный выбор. .

Доп. информация:



Aвтор рипа : chopper887

Blu-ray сюжетно отличается от DVD, в связи с этим присутствуют сцены без перевода, переведены субтитрами


Качество: BDRip-AVC(Исходник BDRemux)
Формат: MKV
Видео кодек: H.264
Аудио кодек: AC3
Видео: 1136x480 (0.172), 24.000 fps, 2252 kbps
Аудио: 48 kHz, AC3 Dolby Digital, 3/2 (L,C,R,l,r) + LFE ch, ~448.00 kbps avg Дубляж - Мосфильм
Аудио: 48 kHz, AC3 Dolby Digital, 3/2 (L,C,R,l,r) + LFE ch, ~448.00 kbps avg Английский
Субтитры: русские - forced
Субтитры: английские

---[NoImage] avs [info]: 1136x480p 1:1 @ 10000000/416667 fps (cfr)
---[NoImage] x264 [info]: using SAR=1/1
---[NoImage] x264 [info]: using cpu capabilities: MMX2 SSE2Fast SSSE3 Cache64
---[NoImage] x264 [info]: profile High, level 4.1
---[NoImage]
---[NoImage] x264 [info]: frame I:1280 Avg QP:17.89 size: 59134
---[NoImage] x264 [info]: frame P:31036 Avg QP:20.61 size: 20229
---[NoImage] x264 [info]: frame B:110244 Avg QP:22.04 size: 8756
---[NoImage] x264 [info]: consecutive B-frames: 1.3% 2.6% 6.9% 22.3% 17.2% 43.0% 4.7% 1.1% 0.9%
---[NoImage] x264 [info]: mb I I16..4: 8.3% 80.2% 11.4%
---[NoImage] x264 [info]: mb P I16..4: 2.2% 10.4% 0.9% P16..4: 54.5% 20.5% 3.4% 0.2% 0.2% skip: 7.7%
---[NoImage] x264 [info]: mb B I16..4: 0.1% 0.9% 0.1% B16..8: 44.3% 9.5% 1.8% direct: 8.5% skip:34.8% L0:44.6% L1:49.7% BI: 5.7%
---[NoImage] x264 [info]: 8x8 transform intra:79.4% inter:70.3%
---[NoImage] x264 [info]: coded y,uvDC,uvAC intra: 82.7% 73.8% 45.4% inter: 29.7% 29.9% 2.9%
---[NoImage] x264 [info]: i16 v,h,dc,p: 50% 14% 8% 28%
---[NoImage] x264 [info]: i8 v,h,dc,ddl,ddr,vr,hd,vl,hu: 9% 8% 5% 11% 16% 14% 14% 11% 12%
---[NoImage] x264 [info]: i4 v,h,dc,ddl,ddr,vr,hd,vl,hu: 12% 10% 4% 9% 15% 14% 14% 11% 13%
---[NoImage] x264 [info]: i8c dc,h,v,p: 44% 22% 20% 14%
---[NoImage] x264 [info]: Weighted P-Frames: Y:3.0%
---[NoImage] x264 [info]: ref P L0: 42.7% 10.0% 19.5% 7.1% 5.9% 4.5% 3.8% 2.3% 2.0% 1.9% 0.2% 0.0%
---[NoImage] x264 [info]: ref B L0: 69.3% 13.3% 6.7% 3.3% 2.6% 2.1% 1.8% 0.7% 0.3%
---[NoImage] x264 [info]: ref B L1: 91.0% 9.0%
---[NoImage] x264 [info]: kb/s:2247.52
---[NoImage] encoded 142560 frames, 1.71 fps, 2247.52 kb/s
--[Information] Final statistics
---[NoImage] Video Bitrate Desired: 2252 kbit/s

General
Complete name : F:Edison.BDRip-AVC.chopper887.mkv
Format : Matroska
File size : 2.18 GiB
Duration : 1h 39mn
Overall bit rate : 3 141 Kbps
Movie name : Rip by chopper887
Encoded date : UTC 2010-06-05 18:59:53
Writing application : mkvmerge v3.0.0 ('Hang up your Hang-Ups') built on Dec 12 2009 15:20:35
Writing library : libebml v0.7.9 + libmatroska v0.8.1

Video
ID : 1
Format : AVC
Format/Info : Advanced Video Codec
Format profile : High@L4.1
Format settings, CABAC : Yes
Format settings, ReFrames : 10 frames
Muxing mode : Container profile=Unknown@4.1
Codec ID : V_MPEG4/ISO/AVC
Duration : 1h 39mn
Bit rate : 2 252 Kbps
Width : 1 136 pixels
Height : 480 pixels
Display aspect ratio : 2.35:1
Frame rate : 24.000 fps
Color space : YUV
Chroma subsampling : 4:2:0
Bit depth : 8 bits
Scan type : Progressive
Bits/(Pixel*Frame) : 0.172
Stream size : 1.51 GiB (69%)
Title : Edisоn
Writing library : x264 core 96 r1613 81e75e9
Encoding settings : cabac=1 / ref=10 / deblock=1:-2:-1 / analyse=0x3:0x133 / me=umh / subme=9 / psy=1 / psy_rd=1.00:0.10 / mixed_ref=1 / me_range=32 / chroma_me=1 / trellis=2 / 8x8dct=1 / cqm=0 / deadzone=21,11 / fast_pskip=0 / chroma_qp_offset=-3 / threads=3 / sliced_threads=0 / nr=0 / decimate=1 / interlaced=0 / constrained_intra=0 / bframes=8 / b_pyramid=2 / b_adapt=2 / b_bias=0 / direct=1 / weightb=1 / weightp=2 / keyint=250 / keyint_min=25 / scenecut=40 / intra_refresh=0 / rc_lookahead=80 / rc=2pass / mbtree=1 / bitrate=2252 / ratetol=1.0 / qcomp=0.60 / qpmin=10 / qpmax=51 / qpstep=4 / cplxblur=20.0 / qblur=0.5 / ip_ratio=1.40 / aq=1:1.00
Language : English

Audio #1
ID : 2
Format : AC-3
Format/Info : Audio Coding 3
Mode extension : CM (complete main)
Codec ID : A_AC3
Duration : 1h 39mn
Bit rate mode : Constant
Bit rate : 448 Kbps
Channel(s) : 6 channels
Channel positions : Front: L C R, Side: L R, LFE
Sampling rate : 48.0 KHz
Stream size : 318 MiB (14%)
Title : Дубляж

Audio #2
ID : 3
Format : AC-3
Format/Info : Audio Coding 3
Mode extension : CM (complete main)
Codec ID : A_AC3
Duration : 1h 39mn
Bit rate mode : Constant
Bit rate : 448 Kbps
Channel(s) : 6 channels
Channel positions : Front: L C R, Side: L R, LFE
Sampling rate : 48.0 KHz
Stream size : 318 MiB (14%)
Title : Английский

Text #1
ID : 4
Format : UTF-8
Codec ID : S_TEXT/UTF8
Codec ID/Info : UTF-8 Plain Text
Title : Русские (forced)

Text #2
ID : 5
Format : UTF-8
Codec ID : S_TEXT/UTF8
Codec ID/Info : UTF-8 Plain Text
Title : Английские






   Похожие торренты   Торрент   Размер 
В этой теме нет новых непрочитанных сообщений. Эдисон и Лео / Edison & Leo (2008) BDRip | P

86 | 30

1.38 ГБ

В этой теме нет новых непрочитанных сообщений. VA - Jazz and Blues on Edison vol. 1 (2006) MP3

6 | 0

163.14 МБ

В этой теме нет новых непрочитанных сообщений. VA - Jazz and Blues on Edison vol. 1 (2006) FLAC

24 | 9

160.56 МБ

В этой теме нет новых непрочитанных сообщений. Harry 'Sweets' Edison - Giants Of Jazz (1995) MP3

3 | 1

172 МБ

В этой теме нет новых непрочитанных сообщений. Red Nichols - On Edison. Recorded In New York, 1924-27 (2000) MP3 от BestSound ExKinoRay

0 | 0

170.96 МБ

В этой теме нет новых непрочитанных сообщений. Glass Tiger - No Turning Back 1985 - 2005 (2005) DVD5 от Brazzass

6 | 25

4.36 ГБ

В этой теме нет новых непрочитанных сообщений. Rudy Rotta - B&W Blues Festival 2004 - 2005 (2005) DVD5 от Brazzass

43 | 13

4.14 ГБ




Вы не можете начинать темы
Вы не можете отвечать на сообщения
Вы не можете редактировать свои сообщения
Вы не можете удалять свои сообщения
Вы не можете добавлять вложения

Перейти:  
 Вход
ppkBB3cker v.2 © 2008-2014 @ PPK
[ Time : 0.035s | 15 Queries | GZIP : Off ]

cron