img image001 image001 image001 image001 image001 image001 image001 image001 image001 image001 image001 image001 image001 image001 image001 image001

Planets Sun Sun Sun
Статистика раздачи
Автор: Снежана | Размер: 2.18 ГБ | Добавлен: 19 июл 2013
Раздают: 92    Качают: 2
Скачать торрент
Скачать торрент
Описание торрента

СообщениеДобавлено: 19 июл 2013 



Затерянный мир / The Lost World (2001, Германия, США, Великобритания, Фэнтези, приключения)DVDRip

Страна: Германия, США, Великобритания
Жанр: Фэнтези, приключения
Год выпуска: 2001
Продолжительность: 02:25:24

Перевод: Профессиональный (двухголосый закадровый)
Cубтитры: нет
Режиссер: Стюарт Орм / Stuart Orme

В ролях: Боб Хоскинс, Джеймс Фокс, Том Уорд, Мэттью Риз, Илэйн Кэссиди, Питер Фальк, Натаниель Лииз, Тамати Райс, Николь Виппи, Inia Maxwell ...

Описание: Потрясающий приключенческий фильм, снятый по всемирно известному роману сэра Артура Конан-Дойля, украшают звёздные имена Боба Хоскинса, Джеймса Фокса и Питера Фалька, а также доисторические монстры из хитового шоу "Прогулки с динозаврами". Экзотические пейзажи и динамичные, мастерски снятые сцены борьбы с кровожадными чудовищами не оставят равнодушными всех любителей приключений. Добро пожаловать в Затерянный Мир!
В начале XX века знаменитый профессор Челленджер делает потрясающее открытие - на удаленном плато в джунглях Амазонки существует удивительный и прекрасный мир, в котором до сих пор обитают динозавры. Миллионы лет эволюции его не коснулись - он остался в первозданном виде. Чтобы переубедить скептиков, группа искателей приключений - сам Челленджер, его чудаковатый коллега профессор Саммерли, девушка Агнес из миссионерского посёлка, бесстрашный охотник лорд Джон Рокстон и молодой репортер Эдвард Мэлоун - отправляются в захватывающее, полное опасностей путешествие на поиски этого удивительного доисторического мира.

Доп. информация:



СЭМПЛ с середины фильма

СЭМПЛ с финальной сцены

Торрент перезалит 19.09.10
В предыдущей раздаче не хватало 2 с половиной минуты,рип полность переделан,всем скачавшим приношу извинения.

Качество видео: DVDRip(Исх.DVD9)
Формат видео: AVI

Видео: 720x400 (16:9), 25.000 fps, XviD build 50 ~1760 kbps avg, 0.24 bit/pixel
Аудио: 48 kHz, AC3 Dolby Digital, 3/2 (L,C,R,l,r) + LFE ch, ~384 kbps
General
Complete name : J:Zaterianny mir.chopper887.avi
Format : AVI
Format/Info : Audio Video Interleave
File size : 2.15 GiB
Duration : 2h 25mn
Overall bit rate : 2 154 Kbps
Writing application : VirtualDubMod 1.5.10.2 (build 2540/release)
Writing library : VirtualDubMod build 2540/release

Video
ID : 0
Format : MPEG-4 Visual
Format profile : AdvancedSimple@L5
Format settings, BVOP : Yes
Format settings, QPel : No
Format settings, GMC : No warppoints
Format settings, Matrix : Custom
Codec ID : XVID
Codec ID/Hint : XviD
Duration : 2h 22mn
Bit rate : 1 760 Kbps
Width : 720 pixels
Height : 400 pixels
Display aspect ratio : 16:9
Frame rate : 25.000 fps
Resolution : 24 bits
Colorimetry : 4:2:0
Scan type : Progressive
Bits/(Pixel*Frame) : 0.244
Stream size : 1.76 GiB (82%)
Writing library : XviD 1.2.1 (UTC 2008-12-04)

Audio
ID : 1
Format : AC-3
Format/Info : Audio Coding 3
Codec ID : 2000
Duration : 2h 22mn
Bit rate mode : Constant
Bit rate : 384 Kbps
Channel(s) : 6 channels
Channel positions : Front: L C R, Surround: L R, LFE
Sampling rate : 48.0 KHz
Stream size : 392 MiB (18%)
Alignment : Split accross interleaves
Interleave, duration : 40 ms (1.00 video frame)
Interleave, preload duration : 500 ms







   Похожие торренты   Торрент   Размер 
В этой теме нет новых непрочитанных сообщений. Затерянный мир / The Lost World (2001) DVDRip-AVC от New-Team | P

411 | 92

2.91 ГБ

В этой теме нет новых непрочитанных сообщений. Затерянный мир / The Lost World [S2] (2000) DVDRip

8 | 5

6.91 ГБ

В этой теме нет новых непрочитанных сообщений. Затерянный мир / The Lost World [S3] (2002) DVDRip

7 | 9

9.61 ГБ

В этой теме нет новых непрочитанных сообщений. Затерянный Мир / The Lost World (1998) DVDRip от New-Team | P

43 | 11

1.46 ГБ

В этой теме нет новых непрочитанных сообщений. Затерянный Мир / The Lost World (1998) DVDRip от New-Team | P

46 | 19

744.85 МБ

В этой теме нет новых непрочитанных сообщений. Затерянный мир / The Lost World [01x15-22] (1999) DVDRip

11 | 5

2.82 ГБ

В этой теме нет новых непрочитанных сообщений. Затерянный мир [01x01-06] / The Lost World (1999) DVDRip

13 | 4

2.92 ГБ




Вы не можете начинать темы
Вы не можете отвечать на сообщения
Вы не можете редактировать свои сообщения
Вы не можете удалять свои сообщения
Вы не можете добавлять вложения

Перейти:  
 Вход
ppkBB3cker v.2 © 2008-2014 @ PPK
[ Time : 0.041s | 18 Queries | GZIP : Off ]

cron