img image001 image001 image001 image001 image001 image001 image001 image001 image001 image001 image001 image001 image001 image001 image001

Planets Sun Sun Sun
Статистика раздачи
Автор: PriZraK | Размер: 9.57 ГБ | Добавлен: 16 фев 2014
Раздают: 946    Качают: 48
Скачать торрент
Скачать торрент
Описание торрента

СообщениеДобавлено: 16 фев 2014 


Авторы: Артем Лукьянов, Марсель Фатхутдинов
Название: Супер After Effects. Полный комплект
Год выпуска: 2013
Жанр: Обучающие видеокурсы
Продолжительность: 124 урока
Описание:
Первый полноценный обучающий видеокурс по After Effects на русском языке.
Этот видеокурс создавался практиками и для практиков. Мы сами когда-то начинали с нуля и до сих пор помним то ощущение беспомощности, когда не знаешь, как создать какие-то элементарные вещи, а помощи искать негде. Наша цель — сэкономить ваше время и сделать так, чтобы вы изучили After Effects максимально быстро и смогли уже через месяц создавать такие видеоэффекты, от которых ваша публика будет в диком восторге! Не важно, являетесь ли вы видеографом, хотите стать профессиональным моушн-дизайнером или просто желаете научиться создавать классные видеоролики — этот курс мы разработали именно для вас!
Качество видео: PCRec
Язык: русский
Видеокодек: avi
Битрейт видео: ~276 Kbps
Размер кадра: 1280x720
Аудиокодек: AAC
Битрейт аудио: 192 Kbps

1. Курс «Супер After Effects» на 2-х DVD
2. Курс «Выражения в After Effects»
3. Курс «Mocha AE»
4. Бонусные видео:
- «Основы теории видео»
- «Выбор компьютера»
- «Основные принципы анимации»
- «Повышение производительности»
- «Шаблоны для цветокоррекции»
- «Как создать живые фотографии»
5. Все дополнительные материалы

General
Format: AVI
Format/Info: Audio Video Interleave
Overall bit rate: 481 Kbps
Writing application: Lavf54.59.106
Video
Format: MPEG-4 Visual
Codec ID: MP42
Codec ID/Info: Microsoft MPEG-4 v2 (pre-standard)
Codec ID/Hint: Microsoft
Bit rate: 276 Kbps
Width: 1 280 pixels
Height: 720 pixels
Display aspect ratio: 16:9
Frame rate: 30.000 fps
Compression mode: Lossy
Bits/(Pixel*Frame): 0.010
Stream size: 9.69 MiB (57%)
Audio
Format: MPEG Audio
Format version: Version 1
Format profile: Layer 3
Mode: Joint stereo
Mode extension: MS Stereo
Codec ID/Hint: MP3
Bit rate mode: Constant
Bit rate: 192 Kbps
Channel(s): 2 channels
Sampling rate: 44.1 KHz
Compression mode: Lossy
Stream size: 6.75 MiB (40%)
Alignment: Aligned on interleaves
Interleave, duration: 26 ms (0.78 video frame)
Writing library: LAME3.98.4



   Похожие торренты   Торрент   Размер 
В этой теме нет новых непрочитанных сообщений. Артем Лукьянов, Марсель Фатхутдинов - Обучающий видеокурс с сайта videosmile (2013) PCRec

13 | 12

22.19 ГБ

В этой теме нет новых непрочитанных сообщений. Артем Лукьянов, Марсель Фатхутдинов - Videosmile. Супер видео. Видеокурс (2016) PCRec

14 | 0

7.74 ГБ

В этой теме нет новых непрочитанных сообщений. Артем Лукьянов - After Effects для начинающих (2013) PC

20 | 4

675.04 МБ

В этой теме нет новых непрочитанных сообщений. Andrew Kramer - Video Copilot. Уроки After Effects. Обучающий видеокурс (2009-2010) PCRec

194 | 6

6 ГБ

В этой теме нет новых непрочитанных сообщений. Алексей Черныш - Видеокурс Adobe Audition с Нуля в Видеоформате ч.1. Обучающий видеокурс (2011) PCRec

180 | 15

4.74 ГБ

В этой теме нет новых непрочитанных сообщений. Алексей Черныш - Видеокурс Adobe Audition с Нуля в Видеоформате ч.2. Обучающий видеокурс (2011) PCRec

115 | 15

3.62 ГБ

В этой теме нет новых непрочитанных сообщений. Артем Гринберг - Обучающий видеокурс Web - Дизайн: Работа с HTML, CSS3, javascript, JQuery (2012 - 2013) WEBRip

237 | 27

3.79 ГБ




Вы не можете начинать темы
Вы не можете отвечать на сообщения
Вы не можете редактировать свои сообщения
Вы не можете удалять свои сообщения
Вы не можете добавлять вложения

Перейти:  
Для Мосгорсуда, Роскомнадзора и рекламодателей: mosgorsud-torrent[собачка]yandex.ru
 Вход
ppkBB3cker v.2 © 2008-2014 @ PPK
[ Time : 0.068s | 16 Queries | GZIP : Off ]

Торрент трекер RUTOR.IN, Не можете зайти на rutor.org? Какой новый адрес рутор? Какое зеркало рутор? Не работает rutor.org и зеркала? Тогда наш торрент специально для вас. Rutor.in неофициальное зеркало rutor. В случае если у Вас заблокирован rutor или вдруг Вы не можете на него зайти, то Вы без труда сможете скачать бесплатно и без рекламы последние новинки кино, игр, сериалов и прочего у нас, на Rutor.in. Не нужно использовать прокси, чтобы зайти на рутор, достаточно воспользоваться нашим ресурсом. Все новые фильмы, игры, сериалы, книги и музыка за 2013 и 2014 годы через торрент бесплатно. Скачивайте фильмы в хорошем качестве, игры для пк, xbox, playstation без регистрации. У нас вы найдете новые Зарубежные сериалы и Русские сериалы 2013, 2014, 2015 годов. Оставайтесь с нами, качайте любимые фильмы, игры, сериалы, книги и музыку.
cron