img image001 image001 image001 image001 image001 image001 image001 image001 image001 image001 image001 image001 image001 image001 image001

Planets Sun Sun Sun
Статистика раздачи
Автор: Снежана | Размер: 745.29 МБ | Добавлен: 12 авг 2013
Раздают: 10    Качают: 20
Скачать торрент
Скачать торрент
Описание торрента

СообщениеДобавлено: 12 авг 2013 

#77
Страна: СССР
Производство: Мосфильм
Жанр: детектив
Год выпуска: 1972
Продолжительность: 01:27:07

Перевод: не требуется
Оригинальная аудиодорожка: русский
Cубтитры: нет

Режиссер: Александр Файнциммер

В ролях:
Василий Лановой, Ирина Скобцева, Владимир Осенев, Игорь Ледогоров, Наталья Величко, Михаил Погоржельский, Геннадий Юдин, Николай Волков...

Описание:
Совместная операция американской и английской разведок по сбору информации о крупном научном открытии в Москве терпит крах. Советскому разведчику Волгину удается разгадать хитроумный план и вычислить вражеского агента…





Исходник: DVD5 R5
Тип релиза: DVDRip
Контейнер: AVI

Видео: 688x320 (2,2:1), 25 fps, XviD ~ 1059 kbps avg, 0.192 bit/pixel
Аудио: 48 kHz, MP3 2.0, 128 kbps

Раздача от:
Общее
Полное имя : Pyat'desyat.na.pyat'desyat.1972.DVDRip-745_[Youtracker]_by_AVP Studio.avi
Формат : AVI
Формат/Информация : Audio Video Interleave
Размер файла : 745 Мбайт
Продолжительность : 1 ч. 27 м.
Общий поток : 1197 Кбит/сек
Программа кодирования : VirtualDubModRus 1.5.10.2 (build 2542/release)
Библиотека кодирования : VirtualDubMod build 2542/release

Видео
Идентификатор : 0
Формат : MPEG-4 Visual
Профиль формата : Advanced Simple@L5
Параметр BVOP формата : 1
Параметр QPel формата : Нет
Параметр GMC формата : Без точки перехода
Параметр матрицы формата : Выборочная
Идентификатор кодека : XVID
Идентификатор кодека/Подсказка : XviD
Продолжительность : 1 ч. 27 м.
Битрейт : 1059 Кбит/сек
Ширина : 688 пикселей
Высота : 320 пикселей
Соотношение сторон : 2,2:1
Частота кадров : 25,000 кадров/сек
Цветовое пространство : YUV
Субдискретизация насыщенности : 4:2:0
Битовая глубина : 8 бит
Тип развёртки : Прогрессивная
Метод сжатия : С потерями
Бит/(Пиксели*Кадры) : 0.192
Размер потока : 660 Мбайт (88%)
Библиотека кодирования : XviD 65

Аудио
Идентификатор : 1
Формат : MPEG Audio
Версия формата : Version 1
Профиль формата : Layer 3
Идентификатор кодека : 55
Идентификатор кодека/Подсказка : MP3
Продолжительность : 1 ч. 27 м.
Вид битрейта : Постоянный
Битрейт : 128 Кбит/сек
Каналы : 2 канала
Частота : 48,0 КГц
Метод сжатия : С потерями
Размер потока : 79,7 Мбайт (11%)
Выравнивание : Соединение по промежуткам
Продолжительность промежутка : 40 мс. (1,00 видеокадр)
Время предзагрузки промежутка : 504 мс.
Библиотека кодирования : L3.99r
Настройки программы : -m s -V 4 -q 2 -lowpass 17 -b 128





   Похожие торренты   Торрент   Размер 
В этой теме нет новых непрочитанных сообщений. Пятьдесят на пятьдесят (1972) DVDRip от Youtracker

4 | 4

1.46 ГБ

В этой теме нет новых непрочитанных сообщений. Пятьдесят на пятьдесят (1972) DVDRip-AVC от Youtracker

19 | 7

1.46 ГБ

В этой теме нет новых непрочитанных сообщений. Пятьдесят на пятьдесят / Fifty/Fifty (1992) DVDRip от NovaLan

53 | 8

1.48 ГБ

В этой теме нет новых непрочитанных сообщений. Пятьдесят на пятьдесят / Fifty/Fifty (1992) DVDRip от NovaLan

0 | 3

1.36 ГБ

В этой теме нет новых непрочитанных сообщений. Пятьдесят на пятьдесят / Fifty/Fifty (1992) DVDRip | P

282 | 69

1.48 ГБ

В этой теме нет новых непрочитанных сообщений. Пятьдесят к одному / 50 to 1 (2014) DVDRip | Лицензия

365 | 25

1.46 ГБ

В этой теме нет новых непрочитанных сообщений. Холодное лето пятьдесят третьего (1987) DVDRip от New-Team

54 | 15

744.8 МБ




Вы не можете начинать темы
Вы не можете отвечать на сообщения
Вы не можете редактировать свои сообщения
Вы не можете удалять свои сообщения
Вы не можете добавлять вложения

Перейти:  
Для Мосгорсуда, Роскомнадзора и рекламодателей: mosgorsud-torrent[собачка]yandex.ru
 Вход
ppkBB3cker v.2 © 2008-2014 @ PPK
[ Time : 0.042s | 16 Queries | GZIP : On ]

Торрент трекер RUTOR.IN, Не можете зайти на rutor.org? Какой новый адрес рутор? Какое зеркало рутор? Не работает rutor.org и зеркала? Тогда наш торрент специально для вас. Rutor.in неофициальное зеркало rutor. В случае если у Вас заблокирован rutor или вдруг Вы не можете на него зайти, то Вы без труда сможете скачать бесплатно и без рекламы последние новинки кино, игр, сериалов и прочего у нас, на Rutor.in. Не нужно использовать прокси, чтобы зайти на рутор, достаточно воспользоваться нашим ресурсом. Все новые фильмы, игры, сериалы, книги и музыка за 2013 и 2014 годы через торрент бесплатно. Скачивайте фильмы в хорошем качестве, игры для пк, xbox, playstation без регистрации. У нас вы найдете новые Зарубежные сериалы и Русские сериалы 2013, 2014, 2015 годов. Оставайтесь с нами, качайте любимые фильмы, игры, сериалы, книги и музыку.