img image001 image001 image001 image001 image001 image001 image001 image001 image001 image001 image001 image001 image001 image001 image001

Planets Sun Sun Sun
Статистика раздачи
Автор: Снежана | Размер: 8.73 ГБ | Добавлен: 12 авг 2013
Раздают: 75    Качают: 26
Скачать торрент
Скачать торрент
Описание торрента

СообщениеДобавлено: 12 авг 2013 

#77
Год выпуска: 2010
Страна: Россия
Студия: НТВ-Кино
Жанр: боевик
Продолжительность: серия ~ 50 мин.

Перевод: не требуется
Субтитры: нет
Оригинальная аудиодорожка: русский

Режиссер: Станислав Мареев

В ролях:
Алексей Комашко, Владислав Демин, Андрей Лавров, Сергей Векслер, Карина Андоленко, Анна Капалева, Александр Никольский (II), Ангелина Коршунова, Евгений Кулаков, Наталья Голованова, Сергей Загребнев, Валерий Кудашкин, Рубен Симонов (II), Иннокентий Тарабара, Валерий Новиков, Елизавета Лотова...

Описание: Весной 1993 года бывший офицер-десантник Александр Якушев, после сокращения из вооруженных сил приезжает в Ставрополь. После ряда безуспешных попыток устроиться на работу в коммерческие структуры, он наталкивается на старого друга который приглашает его вступить в ряды сотрудников — специального отряда быстрого реагирования (СОБР). Костяк составляют бывшие офицеры вооруженных сил.
События фильма происходят на фоне ежедневной работы СОБРа — тренировки, обучение, оперативные выезды на операции по освобождению заложников, задержанию различного статуса преступников и т. п. Разворачивается картина непростых взаимоотношений в среде бывших сотрудников правоохранительных органов и офицеров армейских спецподразделений.
Параллельно, в соседней Чечне, в создавшемся на то время криминальном анклаве, не подчиняющемся Москве, разворачивается история с торговлей оружием. В аферу вовлечены могущественные силы из банковского сектора страны, ряд будущих олигархов и криминальная верхушка Ичкерии.
Во время одной из командировок, отделение СОБРа выполняет задачу по охране и обеспечению деятельности следственной группы из Москвы, которая ведет расследование. И на одной из операций главным героям фильма удается перехватить оружие которое пытались продать чеченским боевикам. С этого момента герои вступают в череду не самых приятных приключений и препетий.
Но отношения, возникшие внутри боевой группы, уже не были чисто служебными. Офицеры-спецназовцы стали частью одной боевой машины, одного рыцарского ордена, имя которому — СОБР...





Исходник: 2хDVD9 R5
Тип релиза: DVDRip-AVC
Контейнер: MKV

Видео: 720->1024x576 (16:9), 25 fps, H264 ~ 1473 kbps avg, 0.142 bit/pixel
Аудио: 48 kHz, Dolby AC3 2.0, 192 kbps

Раздача от:
Общее
Полное имя : SOBR.2010.DVDRip-AVC_[Youtracker]_by_AVP Studio.mkv
Формат : Matroska
Версия формата : Version 2
Размер файла : 521 Мбайт
Продолжительность : 43 м.
Общий поток : 1665 Кбит/сек
Дата кодирования : UTC 2013-07-27 04:29:00
Программа кодирования : mkvmerge v5.0.1 ('Es ist Sommer') built on Nov 6 2011 16:23:40
Библиотека кодирования : libebml v1.2.2 + libmatroska v1.3.0

Видео
Идентификатор : 1
Формат : AVC
Формат/Информация : Advanced Video Codec
Профиль формата : High@L4.1
Параметр CABAC формата : Да
Параметр ReFrames формата : 11 кадров
Идентификатор кодека : V_MPEG4/ISO/AVC
Продолжительность : 43 м.
Битрейт : 1473 Кбит/сек
Ширина : 720 пикселей
Высота : 576 пикселей
Соотношение сторон : 16:9
Частота кадров : 25,000 кадров/сек
Стандарт вещания : PAL
Цветовое пространство : YUV
Субдискретизация насыщенности : 4:2:0
Битовая глубина : 8 бит
Тип развёртки : Прогрессивная
Бит/(Пиксели*Кадры) : 0.142
Размер потока : 451 Мбайт (86%)
Библиотека кодирования : x264 core 130 r2273 b3065e6
Настройки программы : cabac=1 / ref=11 / deblock=1:-2:-1 / analyse=0x3:0x113 / me=umh / subme=9 / psy=1 / psy_rd=1.00:0.20 / mixed_ref=1 / me_range=32 / chroma_me=1 / trellis=1 / 8x8dct=1 / cqm=0 / deadzone=21,11 / fast_pskip=0 / chroma_qp_offset=-3 / threads=3 / lookahead_threads=1 / sliced_threads=0 / nr=0 / decimate=0 / interlaced=0 / bluray_compat=0 / constrained_intra=0 / bframes=8 / b_pyramid=2 / b_adapt=2 / b_bias=0 / direct=3 / weightb=1 / open_gop=0 / weightp=2 / keyint=250 / keyint_min=25 / scenecut=40 / intra_refresh=0 / rc_lookahead=60 / rc=2pass / mbtree=1 / bitrate=1473 / ratetol=1.0 / qcomp=0.60 / qpmin=0 / qpmax=69 / qpstep=4 / cplxblur=20.0 / qblur=0.5 / ip_ratio=1.40 / aq=1:1.00
Default : Да
Forced : Нет

Аудио
Идентификатор : 2
Формат : AC-3
Формат/Информация : Audio Coding 3
Расширение режима : CM (complete main)
Идентификатор кодека : A_AC3
Продолжительность : 43 м.
Вид битрейта : Постоянный
Битрейт : 192 Кбит/сек
Каналы : 2 канала
Расположение каналов : Front: L R
Частота : 48,0 КГц
Битовая глубина : 16 бит
Метод сжатия : С потерями
Размер потока : 60,1 Мбайт (12%)
Default : Да
Forced : Нет





   Похожие торренты   Торрент   Размер 
В этой теме нет новых непрочитанных сообщений. СОБР [01-16 из 16] (2010) DVDRip от Generalfilm | КПК

32 | 8

2.88 ГБ

В этой теме нет новых непрочитанных сообщений. Собр [01-16 из 16] (2011) DVDRip

80 | 12

10.29 ГБ

В этой теме нет новых непрочитанных сообщений. Собр [01-16 из 16] (2011) DVB

10 | 6

23.52 ГБ

В этой теме нет новых непрочитанных сообщений. Боец СОБР (2007) PC

246 | 9

1.27 ГБ

В этой теме нет новых непрочитанных сообщений. Собр [01-16 из 16] (2011) DVD9

0 | 2

15.55 ГБ

В этой теме нет новых непрочитанных сообщений. Собр [01-16 из 16] (2011) SATRip от КинозалSAT

45 | 14

8.59 ГБ

В этой теме нет новых непрочитанных сообщений. Татьяна и Сергей Никитины - Концерт в Доме музыки 27 февраля 2010 год (2010) DVDRip от Youtracker

8 | 3

745.09 МБ




Вы не можете начинать темы
Вы не можете отвечать на сообщения
Вы не можете редактировать свои сообщения
Вы не можете удалять свои сообщения
Вы не можете добавлять вложения

Перейти:  
Для Мосгорсуда, Роскомнадзора и рекламодателей: mosgorsud-torrent[собачка]yandex.ru
 Вход
ppkBB3cker v.2 © 2008-2014 @ PPK
[ Time : 0.039s | 14 Queries | GZIP : Off ]

Торрент трекер RUTOR.IN, Не можете зайти на rutor.org? Какой новый адрес рутор? Какое зеркало рутор? Не работает rutor.org и зеркала? Тогда наш торрент специально для вас. Rutor.in неофициальное зеркало rutor. В случае если у Вас заблокирован rutor или вдруг Вы не можете на него зайти, то Вы без труда сможете скачать бесплатно и без рекламы последние новинки кино, игр, сериалов и прочего у нас, на Rutor.in. Не нужно использовать прокси, чтобы зайти на рутор, достаточно воспользоваться нашим ресурсом. Все новые фильмы, игры, сериалы, книги и музыка за 2013 и 2014 годы через торрент бесплатно. Скачивайте фильмы в хорошем качестве, игры для пк, xbox, playstation без регистрации. У нас вы найдете новые Зарубежные сериалы и Русские сериалы 2013, 2014, 2015 годов. Оставайтесь с нами, качайте любимые фильмы, игры, сериалы, книги и музыку.