img image001 image001 image001 image001 image001 image001 image001 image001 image001 image001 image001 image001 image001 image001 image001

Planets Sun Sun Sun
Статистика раздачи
Автор: Снежана | Размер: 1.46 ГБ | Добавлен: 12 авг 2013
Раздают: 2215    Качают: 101
Скачать торрент
Скачать торрент
Описание торрента

СообщениеДобавлено: 12 авг 2013 

#77
Страна: СССР
Студия: Мосфильм
Жанр: мелодрама, комедия
Год выпуска: 1975
Продолжительность: 03:04:12

Перевод: не требуется
Оригинальная аудиодорожка: русский
Cубтитры: русский, английский

Режиссер: Эльдар Рязанов

В ролях: Андрей Мягков, Барбара Брыльска, Юрий Яковлев, Александр Ширвиндт, Георгий Бурков, Лия Ахеджакова, Александр Белявский, Любовь Добржанская, Ольга Науменко, Готлиб Ронинсон...

Описание: Пошли друзья в баню попариться, по традиции смыть с себя все плохое, чтобы встретить Новый Год чистыми, а «напарились» до такой степени (пивом и водкой), что отправили в Ленинград не того.






Исходник: DVD9 R5 от TWISTER
Качество: DVDRip
Формат: AVI
Дополнительная информация: Долго подбирал исходник, кодировал с разных и сравнивал. В итоге лучшим исходником оказался DVD9 R5 от TWISTER. Крупный план в своем диске завысил контрастность, в связи с чем в темных сценах теряются детали.

Видео: 624x464 (4:3), 25.000 fps, XViD ~ 999 kbps avg, 0.138 bit/pixel
Аудио: 48 kHz, MP3 2 ch, 128 kbps, русский
Формат субтитров: SoftSub (srt)

Раздача от:
Общее
Полное имя : Ironiya.sudby.1975.DVDRip.1.46GB_[Youtracker]_by_avproh.avi
Формат : AVI
Формат/Информация : Audio Video Interleave
Размер файла : 1,46 Гбайт
Продолжительность : 3 ч. 4 м.
Общий поток : 1136 Кбит/сек
Программа кодирования : VirtualDubModRus 1.5.10.2 (build 2542/release)
Библиотека кодирования : VirtualDubMod build 2542/release

Видео
Идентификатор : 0
Формат : MPEG-4 Visual
Профиль формата : Advanced Simple@L5
Параметр BVOP формата : 1
Параметр QPel формата : Нет
Параметр GMC формата : Без точки перехода
Параметр матрицы формата : Выборочная
Идентификатор кодека : XVID
Идентификатор кодека/Подсказка : XviD
Продолжительность : 3 ч. 4 м.
Битрейт : 999 Кбит/сек
Ширина : 624 пикселя
Высота : 464 пикселя
Соотношение сторон : 4:3
Частота кадров : 25,000 кадров/сек
Цветовое пространство : YUV
Субдискретизация насыщенности : 4:2:0
Битовая глубина : 8 бит
Тип развёртки : Прогрессивная
Метод сжатия : С потерями
Бит/(Пиксели*Кадры) : 0.138
Размер потока : 1,28 Гбайт (88%)
Библиотека кодирования : XviD 65

Аудио
Идентификатор : 1
Формат : MPEG Audio
Версия формата : Version 1
Профиль формата : Layer 3
Режим : Joint stereo
Расширение режима : MS Stereo
Идентификатор кодека : 55
Идентификатор кодека/Подсказка : MP3
Продолжительность : 3 ч. 4 м.
Вид битрейта : Постоянный
Битрейт : 128 Кбит/сек
Каналы : 2 канала
Частота : 48,0 КГц
Метод сжатия : С потерями
Размер потока : 169 Мбайт (11%)
Выравнивание : Соединение по промежуткам
Продолжительность промежутка : 40 мс. (1,00 видеокадр)
Время предзагрузки промежутка : 504 мс.






   Похожие торренты   Торрент   Размер 
В этой теме нет новых непрочитанных сообщений. Ирония судьбы, или С легким паром! (1975) DVDRip-AVC от Youtracker

284 | 27

2.91 ГБ

В этой теме нет новых непрочитанных сообщений. Ирония судьбы, или С легким паром! (1975) DVDRip от Youtracker

41 | 11

2.91 ГБ

В этой теме нет новых непрочитанных сообщений. Ирония судьбы, или С легким паром! (1975) DVD9 R5 от Youtracker | TWISTER

102 | 10

7.85 ГБ

В этой теме нет новых непрочитанных сообщений. Ирония судьбы, или С легким паром! (1975) DVDRip | КПК

75 | 11

837.67 МБ

В этой теме нет новых непрочитанных сообщений. Ирония судьбы, или с легким паром (1975) DVDRip

164 | 22

2.73 ГБ

В этой теме нет новых непрочитанных сообщений. Ирония судьбы, или С лёгким паром! (1975) DVDRip-AVC

80 | 6

2.18 ГБ

В этой теме нет новых непрочитанных сообщений. Ирония судьбы, или С легким паром! (1975) DVDRip

134 | 13

1.45 ГБ




Вы не можете начинать темы
Вы не можете отвечать на сообщения
Вы не можете редактировать свои сообщения
Вы не можете удалять свои сообщения
Вы не можете добавлять вложения

Перейти:  
Для Мосгорсуда, Роскомнадзора и рекламодателей: mosgorsud-torrent[собачка]yandex.ru
 Вход
ppkBB3cker v.2 © 2008-2014 @ PPK
[ Time : 0.021s | 14 Queries | GZIP : Off ]

Торрент трекер RUTOR.IN, Не можете зайти на rutor.org? Какой новый адрес рутор? Какое зеркало рутор? Не работает rutor.org и зеркала? Тогда наш торрент специально для вас. Rutor.in неофициальное зеркало rutor. В случае если у Вас заблокирован rutor или вдруг Вы не можете на него зайти, то Вы без труда сможете скачать бесплатно и без рекламы последние новинки кино, игр, сериалов и прочего у нас, на Rutor.in. Не нужно использовать прокси, чтобы зайти на рутор, достаточно воспользоваться нашим ресурсом. Все новые фильмы, игры, сериалы, книги и музыка за 2013 и 2014 годы через торрент бесплатно. Скачивайте фильмы в хорошем качестве, игры для пк, xbox, playstation без регистрации. У нас вы найдете новые Зарубежные сериалы и Русские сериалы 2013, 2014, 2015 годов. Оставайтесь с нами, качайте любимые фильмы, игры, сериалы, книги и музыку.