img image001 image001 image001 image001 image001 image001 image001 image001 image001 image001 image001 image001 image001 image001 image001

Planets Sun Sun Sun
Статистика раздачи
Автор: Снежана | Размер: 2.15 ГБ | Добавлен: 12 авг 2013
Раздают: 857    Качают: 40
Скачать торрент
Скачать торрент
Описание торрента

СообщениеДобавлено: 12 авг 2013 

#77

Информация о фильме
Название: Одиноким предоставляется общежитие
Год выхода: 1983
Жанр: мелодрама, комедия
Режиссер: Самсон Самсонов
В ролях: Наталья Гундарева, Александр Михайлов, Тамара Семина, Фрунзик Мкртчян, Елена Драпеко, Виктор Павлов, Татьяна Божок, Татьяна Агафонова, Елена Майорова, Вера Трофимова, Елена Скороходова, Людмила Коныгина, Людмила Шевель, Владимир Симонов

О фильме:
Вера Голубева, работница текстильного комбината, живёт в общежитии. В свободное время она устраивает судьбу своих подруг. Хотя занятие это бескорыстное и неформальное, Вера подходит к нему профессионально: работает с прессой, рассылает брачные объявления по всему Советскому Союзу и тщательно подбирает женихов. Сама Вера одинока, гуляя на чужих свадьбах, забыла мечтать о собственном семейном счастье.
В чисто женском коллективе общежития появляется новый комендант Виктор Петрович. Поначалу он пытается бороться с заведёнными порядками и прикрыть брачную контору Веры. Но вскоре Виктор Петрович начинает понимать, что Вера это та самая женщина, которую он искал всю жизнь…

Страна: СССР
Продолжительность: 01:23:45
Перевод: Не требуется

Файл
Формат: m4v
Кодек: H.264
Качество: DVDRip-AVC
Видео: 720x426 (анаморф 768x426), 3500kbps, 25fps
Аудио: AAC, 2 channels, 48.0 KHz, 160kbps VBR
Метатэги: Прописаны
Навигация по главам: есть

Раздача будет полезна пользователям iOS и OS X платформ из-за родных кодеков и контейнера.
При просмотре на Windows рекомендую пользоваться iTunes или VLC media player.

x264 [info]: frame I:1106 Avg QP:19.69 size: 35476 PSNR Mean Y:44.20 U:53.87 V:52.19 Avg:45.67 Global:45.44
x264 [info]: frame P:75177 Avg QP:22.16 size: 20934 PSNR Mean Y:41.44 U:51.95 V:50.45 Avg:42.97 Global:42.74
x264 [info]: frame B:49336 Avg QP:23.94 size: 11863 PSNR Mean Y:39.37 U:51.18 V:49.76 Avg:40.96 Global:40.72
x264 [info]: consecutive B-frames: 22.2% 75.6% 2.1% 0.1% 0.0% 0.0% 0.0% 0.0% 0.0% 0.0%
x264 [info]: mb I I16..4: 5.4% 68.5% 26.1%
x264 [info]: mb P I16..4: 1.6% 19.9% 5.2% P16..4: 34.1% 26.4% 11.7% 0.0% 0.0% skip: 1.1%
x264 [info]: mb B I16..4: 0.4% 2.8% 0.8% B16..8: 39.3% 15.8% 5.5% direct:22.1% skip:13.3% L0:41.9% L1:38.6% BI:19.5%
x264 [info]: 8x8 transform intra:73.8% inter:51.8%
x264 [info]: coded y,uvDC,uvAC intra: 96.0% 48.5% 7.6% inter: 64.9% 35.1% 0.2%
x264 [info]: i16 v,h,dc,p: 26% 14% 21% 39%
x264 [info]: i8 v,h,dc,ddl,ddr,vr,hd,vl,hu: 11% 4% 3% 12% 16% 18% 13% 14% 10%
x264 [info]: i4 v,h,dc,ddl,ddr,vr,hd,vl,hu: 10% 4% 2% 11% 15% 18% 13% 15% 12%
x264 [info]: i8c dc,h,v,p: 43% 21% 23% 13%
x264 [info]: Weighted P-Frames: Y:38.0% UV:10.0%
x264 [info]: ref P L0: 45.1% 13.9% 14.5% 9.0% 5.6% 3.8% 3.3% 2.1% 1.6% 1.1% 0.1%
x264 [info]: ref B L0: 81.0% 9.7% 4.1% 1.8% 1.5% 1.0% 0.9% 0.0%
x264 [info]: ref B L1: 99.5% 0.5%
x264 [info]: SSIM Mean Y:0.9634478 (14.371db)
x264 [info]: PSNR Mean Y:40.656 U:51.662 V:50.194 Avg:42.204 Global:41.850 kb/s:3499.97

General
Format : MPEG-4
Format profile : Base Media / Version 2
Codec ID : mp42
File size : 2.15 GiB
Duration : 1h 23mn
Overall bit rate mode : Variable
Overall bit rate : 3 671 Kbps
Movie name : Одиноким предоставляется общежитие
Performer : Самсон Самсонов
Genre : комедия, мелодрама
Recorded date : 1983-11-11
Encoded date : UTC 2013-07-30 18:30:41
Tagged date : UTC 2013-07-31 07:58:38
Cover : Yes
desc : Вера Голубева, работница текстильного комбината, живёт в общежитии. В свободное время она устраивает судьбу своих подруг. Хотя занятие это бескорыстное и неформальное, Вера подходит к нему профессионально: работает с прессой, рассылает брачные объявления по всему Советскому Союзу и тщательно подбирает женихов. Сама Вера одинока, гуляя на чужих свадьбах, забыла мечтать о собственном семейном счастье. / В чисто женском коллективе общежития появляется новый комендант Виктор Петрович. Поначалу он пытается бороться с заведёнными порядками и прикрыть брачную контору Веры. Но вскоре Виктор Петрович начинает понимать, что Вера это та самая женщина, которую он искал всю жизнь…
stik : 9
rtng : 0

Video #1
ID : 1
Format : AVC
Format/Info : Advanced Video Codec
Format profile : High@L4.1
Format settings, CABAC : Yes
Format settings, ReFrames : 9 frames
Codec ID : avc1
Codec ID/Info : Advanced Video Coding
Duration : 1h 23mn
Bit rate mode : Variable
Bit rate : 3 500 Kbps
Width : 720 pixels
Height : 426 pixels
Display aspect ratio : 16:9
Frame rate mode : Constant
Frame rate : 25.000 fps
Color space : YUV
Chroma subsampling : 4:2:0
Bit depth : 8 bits
Scan type : Progressive
Bits/(Pixel*Frame) : 0.456
Stream size : 2.05 GiB (95%)
Writing library : x264 core 130 r2273 b3065e6
Encoding settings : cabac=1 / ref=9 / deblock=1:0:0 / analyse=0x3:0x113 / me=umh / subme=9 / psy=1 / psy_rd=1.00:0.00 / mixed_ref=1 / me_range=32 / chroma_me=1 / trellis=1 / 8x8dct=1 / cqm=0 / deadzone=21,11 / fast_pskip=1 / chroma_qp_offset=-2 / threads=6 / lookahead_threads=1 / sliced_threads=0 / nr=0 / decimate=1 / interlaced=0 / bluray_compat=0 / constrained_intra=0 / bframes=9 / b_pyramid=2 / b_adapt=1 / b_bias=0 / direct=1 / weightb=1 / open_gop=0 / weightp=2 / keyint=250 / keyint_min=25 / scenecut=40 / intra_refresh=0 / rc_lookahead=40 / rc=2pass / mbtree=1 / bitrate=3500 / ratetol=1.0 / qcomp=0.60 / qpmin=0 / qpmax=69 / qpstep=4 / cplxblur=20.0 / qblur=0.5 / vbv_maxrate=62500 / vbv_bufsize=78125 / nal_hrd=none / ip_ratio=1.40 / aq=1:1.00
Language : Russian
Encoded date : UTC 2013-07-30 18:30:41
Tagged date : UTC 2013-07-30 20:11:56
Color primaries : BT.601 PAL
Transfer characteristics : BT.709
Matrix coefficients : BT.601

Video #2
ID : 4
Format : JPEG
Codec ID : jpeg
Duration : 1h 23mn
Bit rate mode : Variable
Bit rate : 767 bps
Width : 640 pixels
Height : 355 pixels
Display aspect ratio : 16:9
Frame rate mode : Variable
Frame rate : 0.002 fps
Minimum frame rate : 0.002 fps
Maximum frame rate : 0.003 fps
Color space : YUV
Chroma subsampling : 4:2:0
Bit depth : 8 bits
Compression mode : Lossy
Bits/(Pixel*Frame) : 1.688
Stream size : 562 KiB (0%)
Language : Russian
Encoded date : UTC 2013-07-31 07:58:38
Tagged date : UTC 2013-07-31 07:58:38

Audio
ID : 2
Format : AAC
Format/Info : Advanced Audio Codec
Format profile : LC
Codec ID : 40
Duration : 1h 23mn
Bit rate mode : Variable
Bit rate : 164 Kbps
Maximum bit rate : 196 Kbps
Channel(s) : 2 channels
Channel positions : Front: L R
Sampling rate : 48.0 KHz
Compression mode : Lossy
Delay relative to video : 80ms
Stream size : 98.4 MiB (4%)
Language : Russian
Encoded date : UTC 2013-07-30 18:30:41
Tagged date : UTC 2013-07-30 20:11:56

Menu #2
ID : 3
Codec ID : text
Duration : 1h 23mn
Language : Russian
Encoded date : UTC 2013-07-30 20:14:14
Tagged date : UTC 2013-07-30 20:14:14
Bit rate mode : VBR
00:00:00.000 : Chapter 1
00:05:25.840 : Chapter 2
00:11:52.480 : Chapter 3
00:18:51.400 : Chapter 4
00:24:58.240 : Chapter 5
00:31:18.280 : Chapter 6
00:38:11.920 : Chapter 7
00:44:28.720 : Chapter 8
00:51:34.000 : Chapter 9
01:00:02.200 : Chapter 10
01:08:53.080 : Chapter 11
01:16:49.960 : Chapter 12



   Похожие торренты   Торрент   Размер 
В этой теме нет новых непрочитанных сообщений. Одиноким предоставляется общежитие (1983) DVDRip

130 | 22

699.63 МБ

В этой теме нет новых непрочитанных сообщений. Одиноким предоставляется общежитие (1983) DVD5

22 | 9

3.24 ГБ

В этой теме нет новых непрочитанных сообщений. Одиноким предоставляется общежитие (1983) HDTVRip-AVC от ExKinoRay

294 | 17

2.14 ГБ

В этой теме нет новых непрочитанных сообщений. Тайны кино (Одиноким предоставляется общежитие) [2017, документальный, биография, WEBRip]

2 | 0

581.43 МБ

В этой теме нет новых непрочитанных сообщений. Ностальгия / Nostalghia (1983) BDRip-AVC | iPad | P1

17 | 7

2.75 ГБ

В этой теме нет новых непрочитанных сообщений. Хармагеддон / Genma Taisen (1983) BDRip-AVC | iPad | P

40 | 15

4.19 ГБ

В этой теме нет новых непрочитанных сообщений. Чебурашка и крокодил Гена. Сборник мультфильмов (1967-1983) BDRip-AVC | iPad

77 | 8

1.97 ГБ




Вы не можете начинать темы
Вы не можете отвечать на сообщения
Вы не можете редактировать свои сообщения
Вы не можете удалять свои сообщения
Вы не можете добавлять вложения

Перейти:  
Для Мосгорсуда, Роскомнадзора и рекламодателей: mosgorsud-torrent[собачка]yandex.ru
 Вход
ppkBB3cker v.2 © 2008-2014 @ PPK
[ Time : 0.046s | 15 Queries | GZIP : Off ]

cron