img image001 image001 image001 image001 image001 image001 image001 image001 image001 image001 image001 image001 image001 image001 image001

Planets Sun Sun Sun
Статистика раздачи
Автор: Снежана | Размер: 1.43 ГБ | Добавлен: 12 авг 2013
Раздают: 470    Качают: 36
Скачать торрент
Скачать торрент
Описание торрента

СообщениеДобавлено: 12 авг 2013 


Страна: СССР
Производство: Мосфильм
Жанр: мюзикл, фантастика, комедия
Год выпуска: 1973
Продолжительность: 01:31:04

Перевод: не требуется
Оригинальная аудиодорожка: русский
Cубтитры: нет

Режиссер: Юрий Цветков, Юрий Сааков

В ролях:
Виктор Сергачев, Екатерина Васильева, Леонид Куравлев, Александр Вокач, Лариса Барабанова, Савелий Крамаров, Наталья Крачковская, Владимир Носик, Вячеслав Гостинский, Игорь Кашинцев, Михаил Езепов, Валентин Голубенко, Светлана Данильченко, Вадим Завьялов, Геннадий Юхтин, Александр Лебедев, Елена Максимова, Виктор Маркин, Георгиос Совчис, Андрей Карташов, Людмила Семеняка, Владимир Тихонов, Валерий и Геннадий Сазоновы, вартисты музыкальных театров, эстрады и цирка...
Исполнители песен: Татьяна Сашко ("Белый танец"), Янина Бразайтене ("Сердце любить должно"), Валерий Ободзинский ("Вечная весна", "Листопад"), Леонид Куравлев и Виктор Сергачев ("На самой совершенной из планет..."), Лев Лещенко ("Песня о вечном движении"), ансамбль "Добры молодцы" ("Я еду к морю", "Галина"), ансамбль "Веселые ребята" ("Это - Москва", "Скорый поезд", "У той горы"), ансамбль "Песняры" ("Наши любимые")

Описание:
Прилетевшие на Землю инопланетяне попадают на встречу Нового года в обычный Дворец культуры. Столкнувшись со множеством загадок, они постепенно приходят к пониманию того, что земная жизнь без шутки и смеха, без искусства и любви невозможна…





Исходник: DVD5 R5
Тип релиза: DVDRip
Контейнер: AVI

Видео: 720x528 (4:3), 25 fps, XviD ~ 2047 kbps avg, 0.215 bit/pixel
Аудио: 48 kHz, Dolby AC3 2.0, 192 kbps

Раздача от:
Общее
Полное имя : Jeta.veselaya.planeta.1973.DVDRip_[Youtracker]_by_AVP Studio.avi
Формат : AVI
Формат/Информация : Audio Video Interleave
Размер файла : 1,43 Гбайт
Продолжительность : 1 ч. 31 м.
Общий поток : 2248 Кбит/сек
Программа кодирования : VirtualDubModRus 1.5.10.2 (build 2542/release)
Библиотека кодирования : VirtualDubMod build 2542/release

Видео
Идентификатор : 0
Формат : MPEG-4 Visual
Профиль формата : Advanced Simple@L5
Параметр BVOP формата : 1
Параметр QPel формата : Нет
Параметр GMC формата : Без точки перехода
Параметр матрицы формата : Выборочная
Идентификатор кодека : XVID
Идентификатор кодека/Подсказка : XviD
Продолжительность : 1 ч. 31 м.
Битрейт : 2047 Кбит/сек
Ширина : 720 пикселей
Высота : 528 пикселей
Соотношение сторон : 4:3
Частота кадров : 25,000 кадров/сек
Цветовое пространство : YUV
Субдискретизация насыщенности : 4:2:0
Битовая глубина : 8 бит
Тип развёртки : Прогрессивная
Метод сжатия : С потерями
Бит/(Пиксели*Кадры) : 0.215
Размер потока : 1,30 Гбайт (91%)
Библиотека кодирования : XviD 65

Аудио
Идентификатор : 1
Формат : AC-3
Формат/Информация : Audio Coding 3
Профиль формата : Dolby Digital
Расширение режима : CM (complete main)
Идентификатор кодека : 2000
Продолжительность : 1 ч. 31 м.
Вид битрейта : Постоянный
Битрейт : 192 Кбит/сек
Каналы : 2 канала
Расположение каналов : Front: L R
Частота : 48,0 КГц
Битовая глубина : 16 бит
Метод сжатия : С потерями
Размер потока : 125 Мбайт (9%)
Выравнивание : Разделение по промежуткам
Продолжительность промежутка : 40 мс. (1,00 видеокадр)
Время предзагрузки промежутка : 500 мс





   Похожие торренты   Торрент   Размер 
В этой теме нет новых непрочитанных сообщений. Эта веселая планета (1973) DVDRip от Youtracker

16 | 7

744.73 МБ

В этой теме нет новых непрочитанных сообщений. Эта веселая планета (1973) DVDRip-AVC от Youtracker

34 | 8

1.46 ГБ

В этой теме нет новых непрочитанных сообщений. Эта веселая планета (1973) DVDRip

42 | 8

1.36 ГБ

В этой теме нет новых непрочитанных сообщений. Эта веселая планета (1973) DVD5 | Реставрация

36 | 6

4.09 ГБ

В этой теме нет новых непрочитанных сообщений. Дикая планета / La planete sauvage (1973) DVDRip

19 | 5

1.3 ГБ

В этой теме нет новых непрочитанных сообщений. Веселая Вдова (1984) SATRip от Youtracker

158 | 9

2.19 ГБ

В этой теме нет новых непрочитанных сообщений. Дикая планета / La planete sauvage (1973) BDRip | P

23 | 4

1.46 ГБ




Вы не можете начинать темы
Вы не можете отвечать на сообщения
Вы не можете редактировать свои сообщения
Вы не можете удалять свои сообщения
Вы не можете добавлять вложения

Перейти:  
Для Мосгорсуда, Роскомнадзора и рекламодателей: mosgorsud-torrent[собачка]yandex.ru
 Вход
ppkBB3cker v.2 © 2008-2014 @ PPK
[ Time : 0.032s | 15 Queries | GZIP : Off ]

Торрент трекер RUTOR.IN, Не можете зайти на rutor.org? Какой новый адрес рутор? Какое зеркало рутор? Не работает rutor.org и зеркала? Тогда наш торрент специально для вас. Rutor.in неофициальное зеркало rutor. В случае если у Вас заблокирован rutor или вдруг Вы не можете на него зайти, то Вы без труда сможете скачать бесплатно и без рекламы последние новинки кино, игр, сериалов и прочего у нас, на Rutor.in. Не нужно использовать прокси, чтобы зайти на рутор, достаточно воспользоваться нашим ресурсом. Все новые фильмы, игры, сериалы, книги и музыка за 2013 и 2014 годы через торрент бесплатно. Скачивайте фильмы в хорошем качестве, игры для пк, xbox, playstation без регистрации. У нас вы найдете новые Зарубежные сериалы и Русские сериалы 2013, 2014, 2015 годов. Оставайтесь с нами, качайте любимые фильмы, игры, сериалы, книги и музыку.
cron