img image001 image001 image001 image001 image001 image001 image001 image001 image001 image001 image001 image001 image001 image001 image001

Planets Sun Sun Sun
Статистика раздачи
Автор: Снежана | Размер: 1.45 ГБ | Добавлен: 12 авг 2013
Раздают: 59    Качают: 11
Скачать торрент
Скачать торрент
Описание торрента

СообщениеДобавлено: 12 авг 2013 

Сборник из четырех детских комедий по рассказам Виктора Драгунского о Денисе Кораблеве.



#77
Страна: СССР
Производство: Ленфильм
Жанр: короткометражка, комедия, семейный
Год выпуска: 1973
Продолжительность: 01:27:57

Перевод: не требуется
Оригинальная аудиодорожка: русский
Cубтитры: нет

Режиссер: Марк Генин, Евгений Татарский, Валентин Горлов, Аян Шахмалиева

В ролях: Саша Михайлов, Леня Михайлов, Маргарита Сергеечева, Сережа Годунов, Клара Лучко, Олег Басилашвили, Саша Хмельницкий, Лиана Жвания, Оля Богданова, Олег Даль, Витя Татарский, Сергей Крупеников, Алексей Сироткин, Владимир Петров, Антонина Павлычева, Б. Барский, Марина Немкова, Вадик Плисов, Саша Ведерников, Илья Стулов, Наташа Веселова, Петя Мосеев, Ролан Быков, Валентина Теличкина, Николай Карамышев, Людмила Ксенофонтова...

Описание: ПОДЗОРНАЯ ТРУБА Родители Дениса Кораблева уставшие от шалостей своего сынишки. Смастерили «подзорную трубу», которая якобы им позволяет всегда наблюдать за Дениской…
ПОЖАР ВО ФЛИГЕЛЕ Шалун Денис Кораблев и его дружок Мишка Слонов в очередной раз опаздывают на урок. И причина вроде бы уважительная – мальчишки помогали ловить орла, улетевшего из живого уголка, но им, конечно, никто не верит…
ГДЕ ЭТО ВИДАНО, ГДЕ ЭТО СЛЫХАНО Дениске и Мишке поручили выступить на школьном концерте с сатирическими куплетами. Артистический дебют двух друзей не удался, но зрители все равно смеялись до слез…
КАПИТАН Денис Кораблев, веселый мальчишка, мечтающий о дальних странствиях, наконец встречается со «старым морским волком», своими дядей, капитаном дальнего плавания.





Исходник: DVD5 R5
Тип релиза: DVDRip
Контейнер: AVI

Видео: 672x512 (4:3), 25 fps, XviD ~ 2166 kbps avg, 0.252 bit/pixel
Аудио: 48 kHz, Dolby AC3 2.0, 192 kbps

Раздача от:
Общее
Полное имя : Gde.eto.vidano,gde.eto.slykhano.1973.DVDRip_[Youtracker]_by_AVP Studio.avi
Формат : AVI
Формат/Информация : Audio Video Interleave
Размер файла : 1,45 Гбайт
Продолжительность : 1 ч. 27 м.
Общий поток : 2368 Кбит/сек
Программа кодирования : VirtualDubModRus 1.5.10.2 (build 2542/release)
Библиотека кодирования : VirtualDubMod build 2542/release

Видео
Идентификатор : 0
Формат : MPEG-4 Visual
Профиль формата : Advanced Simple@L5
Параметр BVOP формата : 1
Параметр QPel формата : Нет
Параметр GMC формата : Без точки перехода
Параметр матрицы формата : Выборочная
Идентификатор кодека : XVID
Идентификатор кодека/Подсказка : XviD
Продолжительность : 1 ч. 27 м.
Битрейт : 2166 Кбит/сек
Ширина : 672 пикселя
Высота : 512 пикселей
Соотношение сторон : 4:3
Частота кадров : 25,000 кадров/сек
Цветовое пространство : YUV
Субдискретизация насыщенности : 4:2:0
Битовая глубина : 8 бит
Тип развёртки : Прогрессивная
Метод сжатия : С потерями
Бит/(Пиксели*Кадры) : 0.252
Размер потока : 1,33 Гбайт (91%)
Библиотека кодирования : XviD 65

Аудио
Идентификатор : 1
Формат : AC-3
Формат/Информация : Audio Coding 3
Расширение режима : CM (complete main)
Идентификатор кодека : 2000
Продолжительность : 1 ч. 27 м.
Вид битрейта : Постоянный
Битрейт : 192 Кбит/сек
Каналы : 2 канала
Расположение каналов : Front: L R
Частота : 48,0 КГц
Битовая глубина : 16 бит
Метод сжатия : С потерями
Размер потока : 121 Мбайт (8%)
Выравнивание : Разделение по промежуткам
Продолжительность промежутка : 40 мс. (1,00 видеокадр)
Время предзагрузки промежутка : 500 мс





   Похожие торренты   Торрент   Размер 
В этой теме нет новых непрочитанных сообщений. Где это видано, где это слыхано (1973) DVDRip-AVC от Youtracker

93 | 6

1.46 ГБ

В этой теме нет новых непрочитанных сообщений. Где это видано, где это слыхано (1973) DVDRip от Youtracker

28 | 8

744.03 МБ

В этой теме нет новых непрочитанных сообщений. Где это видано, где это слыхано (1973) DVDRip

4 | 1

1.09 ГБ

В этой теме нет новых непрочитанных сообщений. Дерзость (1973) DVDRip от Youtracker

26 | 8

1.46 ГБ

В этой теме нет новых непрочитанных сообщений. Всадник без головы (1973) DVDRip от Youtracker

52 | 9

1.46 ГБ

В этой теме нет новых непрочитанных сообщений. Земля Санникова (1973) DVDRip от Youtracker

41 | 15

744.08 МБ

В этой теме нет новых непрочитанных сообщений. Земля Санникова (1973) DVDRip-AVC от Youtracker

235 | 23

1.46 ГБ




Вы не можете начинать темы
Вы не можете отвечать на сообщения
Вы не можете редактировать свои сообщения
Вы не можете удалять свои сообщения
Вы не можете добавлять вложения

Перейти:  
Для Мосгорсуда, Роскомнадзора и рекламодателей: mosgorsud-torrent[собачка]yandex.ru
 Вход
ppkBB3cker v.2 © 2008-2014 @ PPK
[ Time : 0.063s | 15 Queries | GZIP : Off ]

Торрент трекер RUTOR.IN, Не можете зайти на rutor.org? Какой новый адрес рутор? Какое зеркало рутор? Не работает rutor.org и зеркала? Тогда наш торрент специально для вас. Rutor.in неофициальное зеркало rutor. В случае если у Вас заблокирован rutor или вдруг Вы не можете на него зайти, то Вы без труда сможете скачать бесплатно и без рекламы последние новинки кино, игр, сериалов и прочего у нас, на Rutor.in. Не нужно использовать прокси, чтобы зайти на рутор, достаточно воспользоваться нашим ресурсом. Все новые фильмы, игры, сериалы, книги и музыка за 2013 и 2014 годы через торрент бесплатно. Скачивайте фильмы в хорошем качестве, игры для пк, xbox, playstation без регистрации. У нас вы найдете новые Зарубежные сериалы и Русские сериалы 2013, 2014, 2015 годов. Оставайтесь с нами, качайте любимые фильмы, игры, сериалы, книги и музыку.