img image001 image001 image001 image001 image001 image001 image001 image001 image001 image001 image001 image001 image001 image001 image001

Planets Sun Sun Sun
Статистика раздачи
Автор: Снежана | Размер: 745.15 МБ | Добавлен: 12 авг 2013
Раздают: 6    Качают: 5
Скачать торрент
Скачать торрент
Описание торрента

СообщениеДобавлено: 12 авг 2013 

#77
Страна: СССР
Производство: Ленфильм, Студия Троицкий мост

Жанр: драма, мелодрама, комедия
Год выпуска: 1985
Продолжительность: 01:28:12

Перевод: не требуется
Оригинальная аудиодорожка: русский
Cубтитры: нет

Режиссер: Игорь Масленников

В ролях:
Елена Сафонова, Нина Русланова, Лариса Удовиченко, Виталий Соломин, Александр Леньков, Ивар Калныньш, Сергей Паршин, Алла Осипенко, В. Беляев, Валерий Караваев...

Описание:
Молодая интеллигентная женщина одна воспитывает маленького сына. Она любит и любима, но избранник женат и не решается оставить семью. Неожиданно в ее жизнь входит новый знакомый: красивый, внимательный, респектабельный. Но сердцу не прикажешь…






Исходник: Blu-ray Disc 1080p
Тип релиза: BDRip
Контейнер: AVI

Видео: 640x464 (4:3), 25 fps, XviD ~ 1044 kbps avg, 0.147 bit/pixel
Аудио: 48 kHz, MP3 2.0, 128 kbps

Раздача от:
Общее
Полное имя : Zimnyaya.vishnya.1985.BDRip_[Youtracker]_by_AVP Studio.avi
Формат : AVI
Формат/Информация : Audio Video Interleave
Размер файла : 745 Мбайт
Продолжительность : 1 ч. 28 м.
Общий поток : 1181 Кбит/сек
Программа кодирования : VirtualDubModRus 1.5.10.2 (build 2542/release)
Библиотека кодирования : VirtualDubMod build 2542/release

Видео
Идентификатор : 0
Формат : MPEG-4 Visual
Профиль формата : Advanced Simple@L5
Параметр BVOP формата : 1
Параметр QPel формата : Нет
Параметр GMC формата : Без точки перехода
Параметр матрицы формата : Выборочная
Идентификатор кодека : XVID
Идентификатор кодека/Подсказка : XviD
Продолжительность : 1 ч. 28 м.
Битрейт : 1044 Кбит/сек
Ширина : 640 пикселей
Высота : 464 пикселя
Соотношение сторон : 1,379
Частота кадров : 23,976 кадра/сек
Цветовое пространство : YUV
Субдискретизация насыщенности : 4:2:0
Битовая глубина : 8 бит
Тип развёртки : Прогрессивная
Метод сжатия : С потерями
Бит/(Пиксели*Кадры) : 0.147
Размер потока : 659 Мбайт (88%)
Библиотека кодирования : XviD 65

Аудио
Идентификатор : 1
Формат : MPEG Audio
Версия формата : Version 1
Профиль формата : Layer 3
Идентификатор кодека : 55
Идентификатор кодека/Подсказка : MP3
Продолжительность : 1 ч. 28 м.
Вид битрейта : Постоянный
Битрейт : 128 Кбит/сек
Каналы : 2 канала
Частота : 48,0 КГц
Метод сжатия : С потерями
Размер потока : 80,8 Мбайт (11%)
Выравнивание : Соединение по промежуткам
Продолжительность промежутка : 42 мс. (1,00 видеокадр)
Время предзагрузки промежутка : 504 мс.
Библиотека кодирования : L3.99r
Настройки программы : -m s -V 4 -q 2 -lowpass 17 -b 128





   Похожие торренты   Торрент   Размер 
В этой теме нет новых непрочитанных сообщений. Зимняя вишня (1985) BDRip-AVC от Youtracker

37 | 7

1.46 ГБ

В этой теме нет новых непрочитанных сообщений. Зимняя вишня (1985) BDRip-AVC от FREEISLAND

2 | 2

1.64 ГБ

В этой теме нет новых непрочитанных сообщений. Зимняя вишня (1985) BDRip от Odyzic

0 | 3

719.84 МБ

В этой теме нет новых непрочитанных сообщений. Зимняя вишня (1985) BDRip от HQCLUB

284 | 16

1.45 ГБ

В этой теме нет новых непрочитанных сообщений. Зимняя вишня (1985) BDRip 1080p от HDClub

4 | 2

9.27 ГБ

В этой теме нет новых непрочитанных сообщений. Зимняя вишня (1985) BDRip 720p от HDClub

9 | 3

4.59 ГБ

В этой теме нет новых непрочитанных сообщений. Зимняя вишня (1985) DVDRip | КПК

103 | 9

1.87 ГБ




Вы не можете начинать темы
Вы не можете отвечать на сообщения
Вы не можете редактировать свои сообщения
Вы не можете удалять свои сообщения
Вы не можете добавлять вложения

Перейти:  
Для Мосгорсуда, Роскомнадзора и рекламодателей: mosgorsud-torrent[собачка]yandex.ru
 Вход
ppkBB3cker v.2 © 2008-2014 @ PPK
[ Time : 0.055s | 15 Queries | GZIP : Off ]

Торрент трекер RUTOR.IN, Не можете зайти на rutor.org? Какой новый адрес рутор? Какое зеркало рутор? Не работает rutor.org и зеркала? Тогда наш торрент специально для вас. Rutor.in неофициальное зеркало rutor. В случае если у Вас заблокирован rutor или вдруг Вы не можете на него зайти, то Вы без труда сможете скачать бесплатно и без рекламы последние новинки кино, игр, сериалов и прочего у нас, на Rutor.in. Не нужно использовать прокси, чтобы зайти на рутор, достаточно воспользоваться нашим ресурсом. Все новые фильмы, игры, сериалы, книги и музыка за 2013 и 2014 годы через торрент бесплатно. Скачивайте фильмы в хорошем качестве, игры для пк, xbox, playstation без регистрации. У нас вы найдете новые Зарубежные сериалы и Русские сериалы 2013, 2014, 2015 годов. Оставайтесь с нами, качайте любимые фильмы, игры, сериалы, книги и музыку.