img image001 image001 image001 image001 image001 image001 image001 image001 image001 image001 image001 image001 image001 image001 image001

Planets Sun Sun Sun
Статистика раздачи
Автор: Снежана | Размер: 2.18 ГБ | Добавлен: 12 авг 2013
Раздают: 45    Качают: 9
Скачать торрент
Скачать торрент
Описание торрента

СообщениеДобавлено: 12 авг 2013 

#77
Страна: СССР
Производство: Ленфильм
Жанр: мюзикл, комедия
Год выпуска: 1974
Продолжительность: 02:07:12 ( 01:03:30 + 01:03:42)

Перевод: не требуется
Оригинальная аудиодорожка: русский
Cубтитры: нет

Режиссер: Леонид Квинихидзе

В ролях:
Андрей Миронов (Леонидос Фадинар, рантье), Владислав Стржельчик (Антуан Петипьер Нонанкур, отец невесты), Зиновий Гердт (месье Тардюво), Ефим Копелян (месье Бопертюи), Людмила Гурченко (мадам Клара Бокардон), Екатерина Васильева (Анаис, мадам Бопертюи), Алиса Фрейндлих (Баронесса де Шампеньи), Михаил Козаков (Виконт), Игорь Кваша (Эмиль Тавернье), Александр Бениаминов (дядя жениха), Владимир Татосов (Феликс), Ирина Магуто (Вирджини)...

Описание:
Герой фильма вынужден жениться, так как у него полно долгов, а 24 франка в день составляют 8000 с лишним франков в год одной только ренты, и к тому же на браке настаивает отец невесты, но в дело вмешивается лошадь, предпочитающая итальянскую соломку…





Исходник: DVD9 R5
Тип релиза: DVDRip
Контейнер: AVI

Видео: 720x528 (4:3), 25 fps, XviD ~ 2001 kbps avg, 0.211 bit/pixel
Аудио: 48 kHz, Dolby AC3 5.1, 448 kbps

Раздача от:
Общее
Полное имя : Solomennaya.shlyapka.1974.DVDRip_[Youtracker]_by_AVP Studio.avi
Формат : AVI
Формат/Информация : Audio Video Interleave
Размер файла : 1,09 Гбайт
Продолжительность : 1 ч. 3 м.
Общий поток : 2458 Кбит/сек
Программа кодирования : VirtualDubModRus 1.5.10.2 (build 2542/release)
Библиотека кодирования : VirtualDubMod build 2542/release

Видео
Идентификатор : 0
Формат : MPEG-4 Visual
Профиль формата : Advanced Simple@L5
Параметр BVOP формата : 1
Параметр QPel формата : Нет
Параметр GMC формата : Без точки перехода
Параметр матрицы формата : Выборочная
Идентификатор кодека : XVID
Идентификатор кодека/Подсказка : XviD
Продолжительность : 1 ч. 3 м.
Битрейт : 2001 Кбит/сек
Ширина : 720 пикселей
Высота : 528 пикселей
Соотношение сторон : 4:3
Частота кадров : 25,000 кадров/сек
Цветовое пространство : YUV
Субдискретизация насыщенности : 4:2:0
Битовая глубина : 8 бит
Тип развёртки : Прогрессивная
Метод сжатия : С потерями
Бит/(Пиксели*Кадры) : 0.211
Размер потока : 909 Мбайт (81%)
Библиотека кодирования : XviD 65

Аудио
Идентификатор : 1
Формат : AC-3
Формат/Информация : Audio Coding 3
Расширение режима : CM (complete main)
Идентификатор кодека : 2000
Продолжительность : 1 ч. 3 м.
Вид битрейта : Постоянный
Битрейт : 448 Кбит/сек
Каналы : 6 каналов
Расположение каналов : Front: L C R, Side: L R, LFE
Частота : 48,0 КГц
Битовая глубина : 16 бит
Метод сжатия : С потерями
Размер потока : 203 Мбайт (18%)
Выравнивание : Разделение по промежуткам
Продолжительность промежутка : 40 мс. (1,00 видеокадр)
Время предзагрузки промежутка : 500 мс





   Похожие торренты   Торрент   Размер 
В этой теме нет новых непрочитанных сообщений. Соломенная шляпка (1974) DVDRip-AVC от Youtracker

18 | 5

2.19 ГБ

В этой теме нет новых непрочитанных сообщений. Соломенная шляпка (1974) DVDRip от Youtracker

122 | 21

1.45 ГБ

В этой теме нет новых непрочитанных сообщений. Соломенная шляпка (1974) DVDRip-AVC | Реставрация

190 | 74

2.32 ГБ

В этой теме нет новых непрочитанных сообщений. Пощечина / La gifle (1974) DVDRip-AVC от Youtracker

1 | 2

1.46 ГБ

В этой теме нет новых непрочитанных сообщений. Пощечина / La gifle (1974) DVDRip от Youtracker

14 | 5

1.46 ГБ

В этой теме нет новых непрочитанных сообщений. Пощечина / La gifle (1974) DVDRip от Youtracker

3 | 2

745.77 МБ

В этой теме нет новых непрочитанных сообщений. Царевич Проша (1974) DVDRip от Youtracker

87 | 5

744 МБ




Вы не можете начинать темы
Вы не можете отвечать на сообщения
Вы не можете редактировать свои сообщения
Вы не можете удалять свои сообщения
Вы не можете добавлять вложения

Перейти:  
Для Мосгорсуда, Роскомнадзора и рекламодателей: mosgorsud-torrent[собачка]yandex.ru
 Вход
ppkBB3cker v.2 © 2008-2014 @ PPK
[ Time : 0.040s | 16 Queries | GZIP : Off ]

Торрент трекер RUTOR.IN, Не можете зайти на rutor.org? Какой новый адрес рутор? Какое зеркало рутор? Не работает rutor.org и зеркала? Тогда наш торрент специально для вас. Rutor.in неофициальное зеркало rutor. В случае если у Вас заблокирован rutor или вдруг Вы не можете на него зайти, то Вы без труда сможете скачать бесплатно и без рекламы последние новинки кино, игр, сериалов и прочего у нас, на Rutor.in. Не нужно использовать прокси, чтобы зайти на рутор, достаточно воспользоваться нашим ресурсом. Все новые фильмы, игры, сериалы, книги и музыка за 2013 и 2014 годы через торрент бесплатно. Скачивайте фильмы в хорошем качестве, игры для пк, xbox, playstation без регистрации. У нас вы найдете новые Зарубежные сериалы и Русские сериалы 2013, 2014, 2015 годов. Оставайтесь с нами, качайте любимые фильмы, игры, сериалы, книги и музыку.