img image001 image001 image001 image001 image001 image001 image001 image001 image001 image001 image001 image001 image001 image001 image001

Planets Sun Sun Sun
Статистика раздачи
Автор: Снежана | Размер: 7.95 ГБ | Добавлен: 12 авг 2013
Раздают: 104    Качают: 8
Скачать торрент
Скачать торрент
Описание торрента

СообщениеДобавлено: 12 авг 2013 

1612: Хроники Смутного времени (2007) BDRip 720p



Информация о фильме
Название: 1612: Хроники Смутного времени
Оригинальное название: Оригинальное название (для иностранных фильмов)
Год выхода: 2007
Жанр: драма, приключения, история
Режиссер: Владимир Хотиненко

В ролях: Михаил Пореченков, Андрей Федорцов, Александр Балуев, Марат Башаров, Петр Кислов, Виолетта Давыдовская, Светлана Дружинина, Михал Жебровский, Рамон Ланга, Артур Смольянинов, Даниил Спиваковский, Валерий Золотухин

О фильме: После смерти царя Бориса Годунова убиты его вдова и юный наследник Федор. На престол восходит самозванец Лжедмитрий. Но год спустя убит и он, власть переходит из рук в руки. В России наступает Смута…

Единственный свидетель убийства царской семьи — мальчишка-слуга Андрей. В его памяти отпечаталась сцена расправы над законными правителями, но главное — он не может забыть дочь Бориса Годунова, красавицу Ксению. Жива ли царевна? Где она теперь?..

Годы спустя невероятные обстоятельства сводят повзрослевшего Андрея с испанским дворянином Альваром Борха, который вскоре гибнет в схватке с разбойниками. Присвоив его одежду и имя, Андрей превращается в другого человека. Теперь он — «гишпанский кабальер», «воин без страха и упрека», охотник за удачей. И главное — он может воплотить свою мечту: спасти Ксению Годунову и завоевать ее сердце.



Страна: Россия
Продолжительность: 02:23:25
Перевод: Оригинал (Русский), Дублированный (Немецкий)

Файл
Кодек: x.264
Качество: BDRip 720p
Видео: 1280x528 (2,40:1), 25,000 fps, 6401 kbps, 0.379 bit/pixel
Аудио #1: 48 kHz, DTS, 6 ch, ~768.00 kbps (Русский)
Аудио #2: 48 kHz, DTS, 6 ch, ~768.00 kbps (Немецкий)
Субтитры: Немецкие (отключаемые)

&

Общее
Уникальный идентификатор : 191895525034092202427379047761079833833 (0x905DBBD9614D3EB1836E0D7FFA1E14E9)
Полное имя : D:1612.Khroniki smutnogo vremeni.2007.BDRip.720p.mkv
Формат : Matroska
Версия формата : Version 4 / Version 2
Размер файла : 7,95 Гбайт
Продолжительность : 2 ч. 23 м.
Общий поток : 7939 Кбит/сек
Название фильма : 1612: Хроники Смутного времени (2007) BDRip 720p rip by Rulya74
Дата кодирования : UTC 2013-08-05 11:10:10
Программа кодирования : mkvmerge v6.2.0 ('Promised Land') built on Apr 28 2013 12:22:01
Библиотека кодирования : libebml v1.3.0 + libmatroska v1.4.0

Видео
Идентификатор : 1
Формат : AVC
Формат/Информация : Advanced Video Codec
Профиль формата : High@L4.1
Параметр CABAC формата : Да
Параметр ReFrames формата : 6 кадров
Идентификатор кодека : V_MPEG4/ISO/AVC
Продолжительность : 2 ч. 23 м.
Битрейт : 6401 Кбит/сек
Ширина : 1280 пикселей
Высота : 528 пикселей
Соотношение сторон : 2,40:1
Режим частоты кадров : Постоянный
Частота кадров : 25,000 кадров/сек
Цветовое пространство : YUV
Субдискретизация насыщенности : 4:2:0
Битовая глубина : 8 бит
Тип развёртки : Прогрессивная
Бит/(Пиксели*Кадры) : 0.379
Размер потока : 6,26 Гбайт (79%)
Библиотека кодирования : x264 core 133 r2334 a3ac64b
Настройки программы : cabac=1 / ref=6 / deblock=1:-3:-2 / analyse=0x3:0x113 / me=umh / subme=9 / psy=1 / psy_rd=1.12:0.04 / mixed_ref=1 / me_range=32 / chroma_me=1 / trellis=2 / 8x8dct=1 / cqm=0 / deadzone=21,11 / fast_pskip=0 / chroma_qp_offset=-3 / threads=6 / lookahead_threads=1 / sliced_threads=0 / nr=0 / decimate=1 / interlaced=0 / bluray_compat=0 / constrained_intra=0 / bframes=5 / b_pyramid=2 / b_adapt=1 / b_bias=0 / direct=3 / weightb=1 / open_gop=0 / weightp=2 / keyint=250 / keyint_min=25 / scenecut=40 / intra_refresh=0 / rc_lookahead=40 / rc=2pass / mbtree=1 / bitrate=6401 / ratetol=1.0 / qcomp=0.60 / qpmin=0 / qpmax=69 / qpstep=4 / cplxblur=20.0 / qblur=0.5 / vbv_maxrate=62500 / vbv_bufsize=78125 / nal_hrd=none / ip_ratio=1.40 / aq=1:1.00
Default : Да
Forced : Нет

Аудио #1
Идентификатор : 2
Формат : DTS
Формат/Информация : Digital Theater Systems
Режим : 16
Параметр Endianness формата : Big
Идентификатор кодека : A_DTS
Продолжительность : 2 ч. 23 м.
Вид битрейта : Постоянный
Битрейт : 768 Кбит/сек
Каналы : 6 каналов
Расположение каналов : Front: L C R, Side: L R, LFE
Частота : 48,0 КГц
Битовая глубина : 16 бит
Метод сжатия : С потерями
Размер потока : 788 Мбайт (10%)
Заголовок : Оригинал
Язык : Russian
Default : Да
Forced : Нет

Аудио #2
Идентификатор : 3
Формат : DTS
Формат/Информация : Digital Theater Systems
Режим : 16
Параметр Endianness формата : Big
Идентификатор кодека : A_DTS
Продолжительность : 2 ч. 23 м.
Вид битрейта : Постоянный
Битрейт : 768 Кбит/сек
Каналы : 6 каналов
Расположение каналов : Front: L C R, Side: L R, LFE
Частота : 48,0 КГц
Битовая глубина : 16 бит
Метод сжатия : С потерями
Размер потока : 788 Мбайт (10%)
Заголовок : Дублированный
Язык : German
Default : Нет
Forced : Нет

Текст
Идентификатор : 4
Формат : UTF-8
Идентификатор кодека : S_TEXT/UTF8
Идентификатор кодека/Информация : UTF-8 Plain Text
Язык : German
Default : Да
Forced : Нет



   Похожие торренты   Торрент   Размер 
В этой теме нет новых непрочитанных сообщений. 1612: Хроники Смутного времени (2007) BDRip от Rulya74

628 | 41

2.12 ГБ

В этой теме нет новых непрочитанных сообщений. 1612: Хроники смутного времени (2007) BDRip-AVC

56 | 7

2.2 ГБ

В этой теме нет новых непрочитанных сообщений. 1612: Хроники Смутного времени (2007) DVDRip

20 | 27

1.37 ГБ

В этой теме нет новых непрочитанных сообщений. 1612: Хроники Смутного времени (2007) DVDRip от PlanetaUA

109 | 17

1.46 ГБ

В этой теме нет новых непрочитанных сообщений. Час истины. Герои Смутного времени [5 выпусков] (2007-2013) SATRip, WEBRip от Generalfilm

78 | 20

3.19 ГБ

В этой теме нет новых непрочитанных сообщений. Хроники Хуаду: Лезвие розы / Fa dou daai jin (2004) BDRip от Rulya74

8 | 5

1.45 ГБ

В этой теме нет новых непрочитанных сообщений. Хроники будущего / Masters of Science Fiction [s01] (2007) BDRip 720p | P

68 | 26

13.83 ГБ




Вы не можете начинать темы
Вы не можете отвечать на сообщения
Вы не можете редактировать свои сообщения
Вы не можете удалять свои сообщения
Вы не можете добавлять вложения

Перейти:  
Для Мосгорсуда, Роскомнадзора и рекламодателей: mosgorsud-torrent[собачка]yandex.ru
 Вход
ppkBB3cker v.2 © 2008-2014 @ PPK
[ Time : 0.022s | 15 Queries | GZIP : Off ]

Торрент трекер RUTOR.IN, Не можете зайти на rutor.org? Какой новый адрес рутор? Какое зеркало рутор? Не работает rutor.org и зеркала? Тогда наш торрент специально для вас. Rutor.in неофициальное зеркало rutor. В случае если у Вас заблокирован rutor или вдруг Вы не можете на него зайти, то Вы без труда сможете скачать бесплатно и без рекламы последние новинки кино, игр, сериалов и прочего у нас, на Rutor.in. Не нужно использовать прокси, чтобы зайти на рутор, достаточно воспользоваться нашим ресурсом. Все новые фильмы, игры, сериалы, книги и музыка за 2013 и 2014 годы через торрент бесплатно. Скачивайте фильмы в хорошем качестве, игры для пк, xbox, playstation без регистрации. У нас вы найдете новые Зарубежные сериалы и Русские сериалы 2013, 2014, 2015 годов. Оставайтесь с нами, качайте любимые фильмы, игры, сериалы, книги и музыку.