img image001 image001 image001 image001 image001 image001 image001 image001 image001 image001 image001 image001 image001 image001 image001

Planets Sun Sun Sun
Статистика раздачи
Автор: Снежана | Размер: 1.46 ГБ | Добавлен: 12 авг 2013
Раздают: 114    Качают: 13
Скачать торрент
Скачать торрент
Описание торрента

СообщениеДобавлено: 12 авг 2013 

#77
Страна: СССР
Производство: Мосфильм

Жанр: военный
Год выпуска: 1974
Продолжительность: 02:39:50 (01:19:11 + 01:20:39)

Перевод: не требуется
Оригинальная аудиодорожка: русский
Cубтитры: нет

Режиссер: Игорь Гостев

В ролях:
Вячеслав Тихонов, Олег Жаков, Александр Денисов, Семен Морозов, Тофик Мирзоев, Галина Польских, Алексей Борзунов, Иван Переверзев, Евгений Шутов, Владимир Ивашов, Борис Бибиков, Евгений Леонов-Гладышев, Владимир Самойлов, Всеволод Сафонов, Владимир Заманский, Светлана Суховей, Людмила Полякова, Валентин Печников, Павел Кормунин, Николай Полищук, Анатолий Соловьев, Вера Кузнецова, Раиса Куркина, Ханьо Хассе, Юрген Фрорип, Харри Питч, Хорст Шульце, Михаил Турченков и другие

Описание:
В августе 1941 года, когда Красная Армия, ведя ожесточенные бои с превосходящими силами противника, отходила на восток, бывший чекист майор Млынский возглавил отряд из оставшихся в живых бойцов 315 полка 41-й стрелковой дивизии. Отряд начнет упорную борьбу с захватчиками в его тылу…





Исходник: DVD9 R5
Тип релиза: DVDRip
Контейнер: AVI

Видео: 688x304 (1,25:1), 25 fps, XviD ~ 1102 kbps avg, 0.211 bit/pixel
Аудио: 48 kHz, Dolby AC3 2.0, 192 kbps

Раздача от:
Общее
Полное имя : Front.bez.flangov.1974.DVDRip_[Youtracker]_by_AVP Studio.avi
Формат : AVI
Формат/Информация : Audio Video Interleave
Размер файла : 738 Мбайт
Продолжительность : 1 ч. 19 м.
Общий поток : 1303 Кбит/сек
Программа кодирования : VirtualDubModRus 1.5.10.2 (build 2542/release)
Библиотека кодирования : VirtualDubMod build 2542/release

Видео
Идентификатор : 0
Формат : MPEG-4 Visual
Профиль формата : Advanced Simple@L5
Параметр BVOP формата : 1
Параметр QPel формата : Нет
Параметр GMC формата : Без точки перехода
Параметр матрицы формата : Выборочная
Идентификатор кодека : XVID
Идентификатор кодека/Подсказка : XviD
Продолжительность : 1 ч. 19 м.
Битрейт : 1102 Кбит/сек
Ширина : 688 пикселей
Высота : 304 пикселя
Соотношение сторон : 2,25:1
Частота кадров : 25,000 кадров/сек
Цветовое пространство : YUV
Субдискретизация насыщенности : 4:2:0
Битовая глубина : 8 бит
Тип развёртки : Прогрессивная
Метод сжатия : С потерями
Бит/(Пиксели*Кадры) : 0.211
Размер потока : 624 Мбайт (85%)
Библиотека кодирования : XviD 65

Аудио
Идентификатор : 1
Формат : AC-3
Формат/Информация : Audio Coding 3
Расширение режима : CM (complete main)
Идентификатор кодека : 2000
Продолжительность : 1 ч. 19 м.
Вид битрейта : Постоянный
Битрейт : 192 Кбит/сек
Каналы : 2 канала
Расположение каналов : Front: L R
Частота : 48,0 КГц
Битовая глубина : 16 бит
Метод сжатия : С потерями
Размер потока : 109 Мбайт (15%)
Выравнивание : Разделение по промежуткам
Продолжительность промежутка : 40 мс. (1,00 видеокадр)
Время предзагрузки промежутка : 500 мс





   Похожие торренты   Торрент   Размер 
В этой теме нет новых непрочитанных сообщений. Фронт без флангов (1974) DVDRip-AVC от Youtracker

23 | 6

1.45 ГБ

В этой теме нет новых непрочитанных сообщений. Фронт без флангов (2 серии из 2) (1974) DVDRip

80 | 26

2.05 ГБ

В этой теме нет новых непрочитанных сообщений. Фронт без флангов (1974) VHSRip

1 | 3

1.37 ГБ

В этой теме нет новых непрочитанных сообщений. Фронт без флангов [2 серии] (1974) DVD9

5 | 86

7.06 ГБ

В этой теме нет новых непрочитанных сообщений. Фронт. Трилогия (1974-1982 ) DVDRip

155 | 9

6.16 ГБ

В этой теме нет новых непрочитанных сообщений. МУР (Третий фронт) [01-20 из 20] (2012) DVDRip-AVC от Youtracker

28 | 12

13.08 ГБ

В этой теме нет новых непрочитанных сообщений. Военная разведка. Западный фронт [01-08 из 08] (2010) DVDRip-AVC от Youtracker

311 | 96

8.35 ГБ




Вы не можете начинать темы
Вы не можете отвечать на сообщения
Вы не можете редактировать свои сообщения
Вы не можете удалять свои сообщения
Вы не можете добавлять вложения

Перейти:  
Для Мосгорсуда, Роскомнадзора и рекламодателей: mosgorsud-torrent[собачка]yandex.ru
 Вход
ppkBB3cker v.2 © 2008-2014 @ PPK
[ Time : 0.041s | 14 Queries | GZIP : Off ]

Торрент трекер RUTOR.IN, Не можете зайти на rutor.org? Какой новый адрес рутор? Какое зеркало рутор? Не работает rutor.org и зеркала? Тогда наш торрент специально для вас. Rutor.in неофициальное зеркало rutor. В случае если у Вас заблокирован rutor или вдруг Вы не можете на него зайти, то Вы без труда сможете скачать бесплатно и без рекламы последние новинки кино, игр, сериалов и прочего у нас, на Rutor.in. Не нужно использовать прокси, чтобы зайти на рутор, достаточно воспользоваться нашим ресурсом. Все новые фильмы, игры, сериалы, книги и музыка за 2013 и 2014 годы через торрент бесплатно. Скачивайте фильмы в хорошем качестве, игры для пк, xbox, playstation без регистрации. У нас вы найдете новые Зарубежные сериалы и Русские сериалы 2013, 2014, 2015 годов. Оставайтесь с нами, качайте любимые фильмы, игры, сериалы, книги и музыку.