img image001 image001 image001 image001 image001 image001 image001 image001 image001 image001 image001 image001 image001 image001 image001

Planets Sun Sun Sun
Статистика раздачи
Автор: Снежана | Размер: 1.45 ГБ | Добавлен: 12 авг 2013
Раздают: 23    Качают: 6
Скачать торрент
Скачать торрент
Описание торрента

СообщениеДобавлено: 12 авг 2013 

#77
Страна: СССР
Производство: Мосфильм

Жанр: военный
Год выпуска: 1974
Продолжительность: 02:39:50 (01:19:11 + 01:20:39)

Перевод: не требуется
Оригинальная аудиодорожка: русский
Cубтитры: нет

Режиссер: Игорь Гостев

В ролях:
Вячеслав Тихонов, Олег Жаков, Александр Денисов, Семен Морозов, Тофик Мирзоев, Галина Польских, Алексей Борзунов, Иван Переверзев, Евгений Шутов, Владимир Ивашов, Борис Бибиков, Евгений Леонов-Гладышев, Владимир Самойлов, Всеволод Сафонов, Владимир Заманский, Светлана Суховей, Людмила Полякова, Валентин Печников, Павел Кормунин, Николай Полищук, Анатолий Соловьев, Вера Кузнецова, Раиса Куркина, Ханьо Хассе, Юрген Фрорип, Харри Питч, Хорст Шульце, Михаил Турченков и другие

Описание:
В августе 1941 года, когда Красная Армия, ведя ожесточенные бои с превосходящими силами противника, отходила на восток, бывший чекист майор Млынский возглавил отряд из оставшихся в живых бойцов 315 полка 41-й стрелковой дивизии. Отряд начнет упорную борьбу с захватчиками в его тылу…





Исходник: DVD9 R5
Тип релиза: DVDRip
Контейнер: AVI

Видео: 696->856x380 (1,25:1), 25 fps, H264 ~ 1109 kbps avg, 0.168 bit/pixel
Аудио: 48 kHz, Dolby AC3 2.0, 192 kbps

Раздача от:
Общее
Полное имя : Front.bez.flangov.1974.DVDRip-AVC_[Youtracker]_by_AVP Studio2.mkv
Формат : Matroska
Версия формата : Version 2
Размер файла : 752 Мбайт
Продолжительность : 1 ч. 20 м.
Общий поток : 1303 Кбит/сек
Дата кодирования : UTC 2013-08-07 22:24:21
Программа кодирования : mkvmerge v5.0.1 ('Es ist Sommer') built on Nov 6 2011 16:23:40
Библиотека кодирования : libebml v1.2.2 + libmatroska v1.3.0

Видео
Идентификатор : 1
Формат : AVC
Формат/Информация : Advanced Video Codec
Профиль формата : High@L4.1
Параметр CABAC формата : Да
Параметр ReFrames формата : 11 кадров
Идентификатор кодека : V_MPEG4/ISO/AVC
Продолжительность : 1 ч. 20 м.
Битрейт : 1109 Кбит/сек
Ширина : 696 пикселей
Высота : 380 пикселей
Соотношение сторон : 2,25:1
Частота кадров : 25,000 кадров/сек
Цветовое пространство : YUV
Субдискретизация насыщенности : 4:2:0
Битовая глубина : 8 бит
Тип развёртки : Прогрессивная
Бит/(Пиксели*Кадры) : 0.168
Размер потока : 626 Мбайт (83%)
Библиотека кодирования : x264 core 130 r2273 b3065e6
Настройки программы : cabac=1 / ref=11 / deblock=1:-2:-1 / analyse=0x3:0x113 / me=umh / subme=9 / psy=1 / psy_rd=1.00:0.15 / mixed_ref=1 / me_range=32 / chroma_me=1 / trellis=1 / 8x8dct=1 / cqm=0 / deadzone=21,11 / fast_pskip=0 / chroma_qp_offset=-3 / threads=3 / lookahead_threads=1 / sliced_threads=0 / nr=0 / decimate=0 / interlaced=0 / bluray_compat=0 / constrained_intra=0 / bframes=8 / b_pyramid=2 / b_adapt=2 / b_bias=0 / direct=3 / weightb=1 / open_gop=0 / weightp=2 / keyint=250 / keyint_min=25 / scenecut=40 / intra_refresh=0 / rc_lookahead=60 / rc=2pass / mbtree=1 / bitrate=1109 / ratetol=1.0 / qcomp=0.60 / qpmin=0 / qpmax=69 / qpstep=4 / cplxblur=20.0 / qblur=0.5 / ip_ratio=1.40 / aq=1:1.00
Default : Да
Forced : Нет

Аудио
Идентификатор : 2
Формат : AC-3
Формат/Информация : Audio Coding 3
Расширение режима : CM (complete main)
Идентификатор кодека : A_AC3
Продолжительность : 1 ч. 20 м.
Вид битрейта : Постоянный
Битрейт : 192 Кбит/сек
Каналы : 2 канала
Расположение каналов : Front: L R
Частота : 48,0 КГц
Битовая глубина : 16 бит
Метод сжатия : С потерями
Размер потока : 111 Мбайт (15%)
Default : Да
Forced : Нет





   Похожие торренты   Торрент   Размер 
В этой теме нет новых непрочитанных сообщений. Фронт без флангов (1974) DVDRip от Youtracker

114 | 13

1.46 ГБ

В этой теме нет новых непрочитанных сообщений. Фронт без флангов (2 серии из 2) (1974) DVDRip

80 | 26

2.05 ГБ

В этой теме нет новых непрочитанных сообщений. Фронт без флангов (1974) VHSRip

1 | 3

1.37 ГБ

В этой теме нет новых непрочитанных сообщений. Фронт без флангов [2 серии] (1974) DVD9

5 | 86

7.06 ГБ

В этой теме нет новых непрочитанных сообщений. Фронт. Трилогия (1974-1982 ) DVDRip

155 | 9

6.16 ГБ

В этой теме нет новых непрочитанных сообщений. МУР (Третий фронт) [01-20 из 20] (2012) DVDRip-AVC от Youtracker

28 | 12

13.08 ГБ

В этой теме нет новых непрочитанных сообщений. Военная разведка. Западный фронт [01-08 из 08] (2010) DVDRip-AVC от Youtracker

334 | 103

8.35 ГБ




Вы не можете начинать темы
Вы не можете отвечать на сообщения
Вы не можете редактировать свои сообщения
Вы не можете удалять свои сообщения
Вы не можете добавлять вложения

Перейти:  
Для Мосгорсуда, Роскомнадзора и рекламодателей: mosgorsud-torrent[собачка]yandex.ru
 Вход
ppkBB3cker v.2 © 2008-2014 @ PPK
[ Time : 0.759s | 14 Queries | GZIP : Off ]

Торрент трекер RUTOR.IN, Не можете зайти на rutor.org? Какой новый адрес рутор? Какое зеркало рутор? Не работает rutor.org и зеркала? Тогда наш торрент специально для вас. Rutor.in неофициальное зеркало rutor. В случае если у Вас заблокирован rutor или вдруг Вы не можете на него зайти, то Вы без труда сможете скачать бесплатно и без рекламы последние новинки кино, игр, сериалов и прочего у нас, на Rutor.in. Не нужно использовать прокси, чтобы зайти на рутор, достаточно воспользоваться нашим ресурсом. Все новые фильмы, игры, сериалы, книги и музыка за 2013 и 2014 годы через торрент бесплатно. Скачивайте фильмы в хорошем качестве, игры для пк, xbox, playstation без регистрации. У нас вы найдете новые Зарубежные сериалы и Русские сериалы 2013, 2014, 2015 годов. Оставайтесь с нами, качайте любимые фильмы, игры, сериалы, книги и музыку.