img image001 image001 image001 image001 image001 image001 image001 image001 image001 image001 image001 image001 image001 image001 image001

Planets Sun Sun Sun
Статистика раздачи
Автор: Снежана | Размер: 7.95 ГБ | Добавлен: 12 авг 2013
Раздают: 64    Качают: 12
Скачать торрент
Скачать торрент
Описание торрента

СообщениеДобавлено: 12 авг 2013 


Информация о фильме
    Оригинальное название: Королевство кривых зеркал
    Год выхода: 1963
    Жанр: Фэнтези, семейный
    Режиссер: Александр Роу
    Выпущено: СССР / Студия: Горького
    Продолжительность: 01:14:58
    Перевод: Не требуется
    В ролях: Ольга Юкина, Татьяна Юкина, Татьяна Барышева, Анатолий Кубацкий, Андрей Файт, Лидия Вертинская, Аркадий Цинман, Андрей Стапран, Иван Кузнецов, Георгий Милляр


Сюжет фильма
    Однажды школьница Оля взглянула в самое обычное зеркало, которое висело дома в прихожей, и неожиданно отправилась путешествовать в волшебную зазеркальную страну вместе со своим отражением - озорной девочкой Яло. Вдвоем им удается вызволить из тюрьмы мальчика Гурда и разрушить злые чары кривых зеркал...


Файл
    Качество: BDRip 1080p (DVD9) (исходник Blu-ray Disc)
    Видео: 1444x1080, 14735 Кбит/сек, 25,000 кадр/сек, AVC, x264, High@L4.1, 4:3, 0.378 Бит/[Пиксели*Кадры], 2pass
    Аудио 1: AC-3, 448 Кбит/сек, 6 канала(ов), 48,0 КГц - Оригинал / Русский
    Субтитры: Русские | Полные, Английские | Полные
    Чаптеры: Есть



Релиз Группа : & Автор Рипа :



Format : Matroska
Format version : Version 4 / Version 2
File size : 7.95 GiB
Duration : 1h 14mn
Overall bit rate : 15.2 Mbps
Movie name : Королевство кривых зеркал.(1963).BDRip.1080p.(DVD9).[NoLimits-Team]
Encoded date : UTC 2013-08-10 20:28:28
Writing application : mkvmerge v6.3.0 ('You can't stop me!') built on Jun 28 2013 20:09:41
Writing library : libebml v1.3.0 + libmatroska v1.4.0

Video
ID : 1
Format : AVC
Format/Info : Advanced Video Codec
Format profile : High@L4.1
Format settings, CABAC : Yes
Format settings, ReFrames : 4 frames
Codec ID : V_MPEG4/ISO/AVC
Duration : 1h 14mn
Bit rate : 14.7 Mbps
Width : 1 444 pixels
Height : 1 080 pixels
Display aspect ratio : 4:3
Frame rate mode : Constant
Frame rate : 25.000 fps
Color space : YUV
Chroma subsampling : 4:2:0
Bit depth : 8 bits
Scan type : Progressive
Bits/(Pixel*Frame) : 0.378
Stream size : 7.56 GiB (95%)
Title : Королевство кривых зеркал.(1963).BDRip.1080p.(DVD9).[NoLimits-Team]
Writing library : x264 core 135 r2345 f0c1c53
Encoding settings : cabac=1 / ref=4 / deblock=1:-1:-1 / analyse=0x3:0x133 / me=umh / subme=11 / psy=1 / psy_rd=1.00:0.00 / mixed_ref=1 / me_range=64 / chroma_me=1 / trellis=2 / 8x8dct=1 / cqm=0 / deadzone=21,11 / fast_pskip=0 / chroma_qp_offset=-2 / threads=12 / lookahead_threads=2 / sliced_threads=0 / nr=0 / decimate=1 / interlaced=0 / bluray_compat=0 / constrained_intra=0 / bframes=9 / b_pyramid=2 / b_adapt=2 / b_bias=0 / direct=3 / weightb=1 / open_gop=0 / weightp=2 / keyint=250 / keyint_min=25 / scenecut=40 / intra_refresh=0 / rc=2pass / mbtree=0 / bitrate=14735 / ratetol=2.0 / qcomp=0.60 / qpmin=0 / qpmax=69 / qpstep=4 / cplxblur=20.0 / qblur=0.5 / ip_ratio=1.40 / pb_ratio=1.30 / aq=1:1.00
Language : Russian
Default : Yes
Forced : No

Audio
ID : 2
Format : AC-3
Format/Info : Audio Coding 3
Mode extension : CM (complete main)
Format settings, Endianness : Big
Codec ID : A_AC3
Duration : 1h 14mn
Bit rate mode : Constant
Bit rate : 448 Kbps
Channel(s) : 6 channels
Channel positions : Front: L C R, Side: L R, LFE
Sampling rate : 48.0 KHz
Bit depth : 16 bits
Compression mode : Lossy
Stream size : 240 MiB (3%)
Title : Оригинал
Language : Russian
Default : Yes
Forced : No

Text #1
ID : 3
Format : UTF-8
Codec ID : S_TEXT/UTF8
Codec ID/Info : UTF-8 Plain Text
Title : Русские (полные)
Language : Russian
Default : Yes
Forced : No

Text #2
ID : 4
Format : UTF-8
Codec ID : S_TEXT/UTF8
Codec ID/Info : UTF-8 Plain Text
Title : Английские (полные)
Language : English
Default : No
Forced : No

Menu
00:00:00.000 : :Chapter 01
00:02:27.440 : :Chapter 02
00:08:42.760 : :Chapter 03
00:19:50.400 : :Chapter 04
00:28:44.160 : :Chapter 05
00:39:34.760 : :Chapter 06
00:49:47.400 : :Chapter 07
00:58:29.640 : :Chapter 08
01:10:31.560 : :Chapter 09





   Похожие торренты   Торрент   Размер 
В этой теме нет новых непрочитанных сообщений. Королевство кривых зеркал (1963) BDRip-AVC от AVCurtain

9 | 4

2.07 ГБ

В этой теме нет новых непрочитанных сообщений. Королевство кривых зеркал (1963) BDRip от HELLYWOOD

456 | 15

1.45 ГБ

В этой теме нет новых непрочитанных сообщений. Королевство кривых зеркал (1963) Blu-ray

9 | 7

15.5 ГБ

В этой теме нет новых непрочитанных сообщений. Королевство кривых зеркал (1963) DVD5

3 | 2

3.78 ГБ

В этой теме нет новых непрочитанных сообщений. Королевство кривых зеркал (1963) DVDRip от AndrewWhite

172 | 17

1.37 ГБ

В этой теме нет новых непрочитанных сообщений. Сказки Александра Роу: Королевство кривых зеркал; Морозко; Финист - Ясный сокол (1963-1975) DVD5

287 | 18

4.15 ГБ

В этой теме нет новых непрочитанных сообщений. Королевство Кривых Зеркал (2008) SATRip

77 | 13

1.46 ГБ




Вы не можете начинать темы
Вы не можете отвечать на сообщения
Вы не можете редактировать свои сообщения
Вы не можете удалять свои сообщения
Вы не можете добавлять вложения

Перейти:  
Для Мосгорсуда, Роскомнадзора и рекламодателей: mosgorsud-torrent[собачка]yandex.ru
 Вход
ppkBB3cker v.2 © 2008-2014 @ PPK
[ Time : 0.023s | 13 Queries | GZIP : Off ]
CGP output time : 0.047s | 5 Queries | GZIP : Off

Торрент трекер RUTOR.IN, Не можете зайти на rutor.org? Какой новый адрес рутор? Какое зеркало рутор? Не работает rutor.org и зеркала? Тогда наш торрент специально для вас. Rutor.in неофициальное зеркало rutor. В случае если у Вас заблокирован rutor или вдруг Вы не можете на него зайти, то Вы без труда сможете скачать бесплатно и без рекламы последние новинки кино, игр, сериалов и прочего у нас, на Rutor.in. Не нужно использовать прокси, чтобы зайти на рутор, достаточно воспользоваться нашим ресурсом. Все новые фильмы, игры, сериалы, книги и музыка за 2013 и 2014 годы через торрент бесплатно. Скачивайте фильмы в хорошем качестве, игры для пк, xbox, playstation без регистрации. У нас вы найдете новые Зарубежные сериалы и Русские сериалы 2013, 2014, 2015 годов. Оставайтесь с нами, качайте любимые фильмы, игры, сериалы, книги и музыку.